卡西迪奥 发表于 2021-9-25 21:22:45

侵犯/触犯 Violation.2020.1080p.BluRay.x264.DTS-HD.MA.5.1-MT 17.12GB

https://img.btkiller.com/go?from=xd&key=5f110378186ad287445388684f30a8da.jpeg

◎译  名 侵犯/触犯
◎片  名 Violation
◎年  代 2020
◎产  地 加拿大
◎类  别 剧情 / 恐怖
◎语  言 英语
◎上映日期 2020-09-14(多伦多电影节) / 2021-03-25(美国网络)
◎豆瓣评分 5.3/10 from 175 users
◎豆瓣链接 https://movie.douban.com/subject/35162169/
◎导  演 达斯蒂·曼奇内利 Dusty Mancinelli
◎编  剧 玛德琳·西姆斯-菲尔 Madeleine Sims-Fewer / 达斯蒂·曼奇内利 Dusty Mancinelli
◎主  演 辛提加·阿斯佩格 Cintija Asperger
      贾斯敏·盖廖 Jasmin Geljo
      玛德琳·西姆斯-菲尔 Madeleine Sims-Fewer
      杰西·拉维科姆 Jesse LaVercombe

◎标  签 加拿大 | 惊悚 | 2020 | 复仇 | 女性 | 恐怖 | 加拿大电影 | 加拿大電影

◎简  介 https://img.btkiller.com/thinkphp.php

  A traumatic betrayal drives a woman towards a vengeful extremity.

◎获奖情况

  第45届多伦多国际电影节 ?(2020)
  观众选择奖午夜疯狂单元(提名)
  最佳加拿大电影(提名)
Video
ID : 1
Format : AVC
Format/Info : Advanced Video Codec
Format profile : High@L4.1
Format settings : CABAC / 5 Ref Frames
Format settings, CABAC : Yes
Format settings, Reference frames : 5 frames
Codec ID : V_MPEG4/ISO/AVC
Duration : 1 h 47 min
Bit rate : 19.1 Mb/s
Width : 1 920 pixels
Height : 804 pixels
Display aspect ratio : 2.40:1
Frame rate mode : Constant
Frame rate : 23.976 (24000/1001/189150) FPS
Color space : YUV
Chroma subsampling : 4:2:0
Bit depth : 8 bits
Scan type : Progressive
Bits/(Pixel*Frame) : 0.516
Stream size : 14.4 GiB (84%)
Writing library : x264 core 157 r2938 2b00a84 TnP@MTeam Mod
Encoding settings : cabac=1 / ref=5 / deblock=1:-3:-3 / analyse=0x3:0x133 / me=umh / subme=10 / psy=1 / psy_rd=1.05:0.00 / mixed_ref=1 / me_range=32 / chroma_me=1 / trellis=2 / 8x8dct=1 / cqm=0 / deadzone=21,11 / fast_pskip=0 / chroma_qp_offset=-2 / threads=12 / lookahead_threads=2 / sliced_threads=0 / nr=0 / decimate=0 / interlaced=0 / bluray_compat=0 / constrained_intra=0 / bframes=8 / b_pyramid=2 / b_adapt=2 / b_bias=0 / direct=3 / weightb=1 / open_gop=0 / weightp=2 / keyint=250 / keyint_min=24 / scenecut=40 / intra_refresh=0 / rc_lookahead=250 / rc=crf / mbtree=0 / crf=16.8 / qcomp=0.60 / qpmin=0 / qpmax=69 / qpstep=4 / vbv_maxrate=62500 / vbv_bufsize=78125 / crf_max=0.0 / nal_hrd=none / filler=0 / ip_ratio=1.30 / pb_ratio=1.20 / aq=3:0.80
Language : English
Default : Yes
Forced : No
Color range : Limited
Color primaries : BT.709
Matrix coefficients : BT.709

Audio
ID : 2
Format : DTS XLL
Format/Info : Digital Theater Systems
Commercial name : DTS-HD Master Audio
Codec ID : A_DTS
Duration : 1 h 47 min
Bit rate mode : Variable
Bit rate : 3 648 kb/s
Channel(s) : 6 channels
Channel layout : C L R Ls Rs LFE
Sampling rate : 48.0 kHz
Frame rate : 93.750 FPS (512 SPF)
Bit depth : 24 bits
Compression mode : Lossless
Stream size : 2.75 GiB (16%)
Language : English
Default : Yes
Forced : No

Text #1
ID : 3
Format : UTF-8
Codec ID : S_TEXT/UTF8
Codec ID/Info : UTF-8 Plain Text
Duration : 1 h 44 min
Bit rate : 34 b/s
Count of elements : 887
Stream size : 26.4 KiB (0%)
Title : SRT
Language : English
Default : Yes
Forced : No

Text #2
ID : 4
Format : PGS
Muxing mode : zlib
Codec ID : S_HDMV/PGS
Codec ID/Info : Picture based subtitle format used on BDs/HD-DVDs
Duration : 1 h 47 min
Bit rate : 17.4 kb/s
Count of elements : 2500
Stream size : 13.4 MiB (0%)
Language : English
Default : No
Forced : No

Menu
00:00:00.000 : Chapter 01
00:10:45.562 : Chapter 02
00:25:57.556 : Chapter 03
00:35:06.062 : Chapter 04
00:43:52.588 : Chapter 05
01:03:40.025 : Chapter 06
01:20:19.440 : Chapter 07
01:45:02.296 : Chapter 08
https://img.btkiller.com/go?from=xd&key=1a766d14122d784a90a81c71301e4b14.pnghttps://img.btkiller.com/go?from=xd&key=e95285a33d91b14e92f3a4efba236a50.pnghttps://img.btkiller.com/go?from=xd&key=642e78b2392b0c343e45a4d2a52b5811.png



页: [1]
查看完整版本: 侵犯/触犯 Violation.2020.1080p.BluRay.x264.DTS-HD.MA.5.1-MT 17.12GB