卡西迪奥 发表于 2021-9-25 21:31:11

空中大灌篮:新传奇 Space.Jam.A.New.Legacy.2021.1080p.BluRay.x264.DTS-HD.MA.7.1-MT 18.56GB

https://img.btkiller.com/go?from=xd&key=587f89574fdf0c57a7c163d7d7bb8796.jpeg

◎译  名 空中大灌篮:新传奇/Space Jam 2: A Jogada Continua/Space Jam 2008/Space Jam Twenty 16/太空也入樽:改朝换代(港)/太空也入樽2(港)/宇宙大灌篮:新传承/宇宙大灌篮2/怪物奇兵 全新世代(台)/怪物奇兵2/空中大灌篮2:新传奇
◎片  名 Space Jam: A New Legacy
◎年  代 2021
◎产  地 美国
◎类  别 喜剧 / 动画 / 运动
◎语  言 英语
◎上映日期 2021-07-16(美国)
◎豆瓣评分 6.3/10 from 9589 users
◎豆瓣链接 https://movie.douban.com/subject/25834936/
◎片  长 120分钟
◎导  演 马尔科姆·D·李 Malcolm D. Lee
◎编  剧 朱埃尔·泰勒 Juel Taylor / 特伦斯·南斯 Terence Nance / 蒂莫西·哈里斯 Timothy Harris / 史蒂夫·鲁德尼克 Steve Rudnick / 赫舍尔·魏因格罗德 Herschel Weingrod / 莱奥·本韦努蒂 Leo Benvenuti / 阿尔弗雷多·博泰洛 Alfredo Botello / 安德鲁·道奇 Andrew Dodge / 查克·琼斯 Chuck Jones / 林诣彬 Justin Lin / 威利?埃伯索尔 Willie Ebersol / 基南·库格勒 Keenan Coogler
◎主  演 勒布朗·詹姆斯 LeBron James
      赞达亚 Zendaya
      吉姆·卡明斯 Jim Cummings
      索尼夸·马丁-格林 Sonequa Martin-Green
      唐·钱德尔 Don Cheadle
      弗雷德·塔特西奥 Fred Tatasciore
      特蕾丝·麦克尼尔 Tress MacNeille
      马丁·科勒巴 Martin Klebba
      加布里埃尔·伊格莱西亚斯 Gabriel Iglesias
      豪莎·罗克莫雷 Xosha Roquemore
      艾瑞克·鲍扎 Eric Bauza
      鲍伯·伯根 Bob Bergen
      杰夫·伯格曼 Jeff Bergman
      坎迪·米洛 Candi Milo
      克里斯·戴维斯 Khris Davis
      凯蒂·麦克凯布 Katie McCabe
      斯凯勒·拜布尔 Skyler Bible
      克里斯·保罗 Chris Paul
       Peter Cornell
      克莱·汤普森 Klay Thompson
      德雷蒙德·格林 Draymond Green
      Hassan Said Hassan Said
      Erin Flannery Erin Flannery
      德里克?吉尔伯特 Derrick Gilbert
      G·莱恩·希尔曼 G. Lane Hillman
      卡桑德拉·斯塔尔 Cassandra Starr

◎标  签 篮球 | 动画 | 体育 | 美国 | 喜剧 | 2021 | 运动 | 电影

◎简  介 https://img.btkiller.com/thinkphp.php

  故事讲述勒布朗与他的小儿子多姆被人工智能困在了“华纳兄弟电影宇宙”虚拟空间,为了能安全回家,他必须率兔八哥、罗拉兔和那些不守规矩的乐一通卡通,战胜一支全明星篮球队。这场对决是勒布朗人生的最大挑战,也将重新定义他与儿子间的关系,并让勒布朗领悟到“做自己”的真谛;乐一通的小伙伴们则要打破陈规,超常发挥自己的独特技能,令勒布朗都刮目相看。然而他们面对的,是一群前所未见、所向披靡的人工智能强化型对手“末日狂徒队”,勒布朗和乐一通们真的能成功击败他们吗?
Video
ID : 1
Format : AVC
Format/Info : Advanced Video Codec
Format profile : High@L4.1
Format settings : CABAC / 4 Ref Frames
Format settings, CABAC : Yes
Format settings, Reference frames : 4 frames
Codec ID : V_MPEG4/ISO/AVC
Duration : 1 h 55 min
Bit rate : 18.5 Mb/s
Width : 1 920 pixels
Height : 1 038 pixels
Display aspect ratio : 1.85:1
Frame rate mode : Constant
Frame rate : 23.976 (24000/1001/189150) FPS
Color space : YUV
Chroma subsampling : 4:2:0
Bit depth : 8 bits
Scan type : Progressive
Bits/(Pixel*Frame) : 0.387
Stream size : 14.9 GiB (80%)
Writing library : x264 core 157 r2938 2b00a84 TnP@MTeam Mod
Encoding settings : cabac=1 / ref=4 / deblock=1:-3:-3 / analyse=0x3:0x133 / me=umh / subme=10 / psy=1 / psy_rd=1.05:0.00 / mixed_ref=1 / me_range=32 / chroma_me=1 / trellis=2 / 8x8dct=1 / cqm=0 / deadzone=21,11 / fast_pskip=0 / chroma_qp_offset=-2 / threads=12 / lookahead_threads=2 / sliced_threads=0 / nr=0 / decimate=0 / interlaced=0 / bluray_compat=0 / constrained_intra=0 / bframes=8 / b_pyramid=2 / b_adapt=2 / b_bias=0 / direct=3 / weightb=1 / open_gop=0 / weightp=2 / keyint=250 / keyint_min=24 / scenecut=40 / intra_refresh=0 / rc_lookahead=250 / rc=crf / mbtree=0 / crf=16.8 / qcomp=0.60 / qpmin=0 / qpmax=69 / qpstep=4 / vbv_maxrate=62500 / vbv_bufsize=78125 / crf_max=0.0 / nal_hrd=none / filler=0 / ip_ratio=1.30 / pb_ratio=1.20 / aq=3:0.80
Language : English
Default : Yes
Forced : No
Color range : Limited
Color primaries : BT.709
Matrix coefficients : BT.709

Audio
ID : 2
Format : DTS XLL
Format/Info : Digital Theater Systems
Commercial name : DTS-HD Master Audio
Codec ID : A_DTS
Duration : 1 h 55 min
Bit rate mode : Variable
Bit rate : 4 475 kb/s
Channel(s) : 8 channels
Channel layout : C L R LFE Lb Rb Lss Rss
Sampling rate : 48.0 kHz
Frame rate : 93.750 FPS (512 SPF)
Bit depth : 24 bits
Compression mode : Lossless
Stream size : 3.61 GiB (19%)
Language : English
Default : Yes
Forced : No

Text #1
ID : 3
Format : UTF-8
Codec ID : S_TEXT/UTF8
Codec ID/Info : UTF-8 Plain Text
Duration : 1 h 55 min
Bit rate : 67 b/s
Count of elements : 2064
Stream size : 56.5 KiB (0%)
Title : SRT
Language : English
Default : Yes
Forced : No

Text #2
ID : 4
Format : PGS
Muxing mode : zlib
Codec ID : S_HDMV/PGS
Codec ID/Info : Picture based subtitle format used on BDs/HD-DVDs
Duration : 1 h 55 min
Bit rate : 52.0 kb/s
Count of elements : 4852
Stream size : 42.9 MiB (0%)
Language : English
Default : No
Forced : No

Menu
00:00:00.000 : Chapter 01
00:08:57.036 : Chapter 02
00:14:28.493 : Chapter 03
00:19:20.993 : Chapter 04
00:25:11.176 : Chapter 05
00:34:42.539 : Chapter 06
00:42:10.695 : Chapter 07
00:50:33.864 : Chapter 08
00:56:00.732 : Chapter 09
01:03:57.459 : Chapter 10
01:08:39.824 : Chapter 11
01:17:40.865 : Chapter 12
01:24:07.209 : Chapter 13
01:31:58.888 : Chapter 14
01:39:33.050 : Chapter 15
01:48:15.864 : Chapter 16




页: [1]
查看完整版本: 空中大灌篮:新传奇 Space.Jam.A.New.Legacy.2021.1080p.BluRay.x264.DTS-HD.MA.7.1-MT 18.56GB