卡西迪奥 发表于 2021-9-25 21:45:28

年轻人在此 Here.Are.the.Young.Men.2020.1080p.AMZN.WEBRip.DDP5.1.x264-ODEON 4.81GB

https://img.btkiller.com/go?from=xd&key=0e140923a04eec5e5023491932e83bd0.jpeg

◎译  名 年轻人在此
◎片  名 Here Are the Young Men
◎年  代 2020
◎产  地 爱尔兰,美国
◎类  别 剧情
◎语  言 英语
◎上映日期 2020-07-11(高威电影节) / 2021-04-27(美国)
◎豆瓣评分 5.1/10 from 320 users
◎豆瓣链接 https://movie.douban.com/subject/30291336/
◎片  长 96分钟
◎导  演 欧文·马肯 Eoin Macken
◎编  剧 欧文·马肯 Eoin Macken
◎主  演 安雅·泰勒-乔伊 Anya Taylor-Joy
      迪恩·查尔斯·查普曼 Dean-Charles Chapman
      芬恩·科尔 Finn Cole
      崔维斯·费米尔 Travis Fimmel
      拉尔夫·伊内森 Ralph Ineson
      康勒斯·希尔 Conleth Hill
      苏珊·林奇 Susan Lynch
      埃米特·斯坎伦 Emmett J Scanlan
      福迪亚·瓦尔什-匹罗 Ferdia Walsh-Peelo
      洛拉·佩蒂克鲁 Lola Petticrew
       Rian Sheehy Kelly
      Carl Shaaban Carl Shaaban
      克里斯·纽曼 Chris Newman

◎标  签 安雅·泰勒-乔伊 | 青春 | 爱尔兰 | 剧情 | 2020 | 爱尔兰电影 | 文艺 | 犯罪

◎简  介 https://img.btkiller.com/thinkphp.php

  故事发生在都柏林,四位伙伴结束了学生生涯,开始寻求刺激和放纵的夏日狂欢。马修是个蠢蠢欲动的乖仔,科尔尼游走于危险边缘,雷兹日常沉溺于虚无,唯一的女生——简,活得自由潇洒。科尔尼无处不在的疯狂举动,将马修和他与简未成熟的感情置于悬崖边缘。同时,雷兹陷入了诡异臆想中。当目睹生命消逝,他们不得不开始质疑生活的选择。互动性极强的叙事、流畅的摄影剪辑、大胆的色彩运用带来沉浸的迷幻体验。爱尔兰演员欧文·马肯自编自导,集合一众英国新星,演绎另类青春躁动。年轻人在此,恣意逐乐。
Video
ID : 1
Format : AVC
Format/Info : Advanced Video Codec
Format profile : High@L4
Format settings : CABAC / 4 Ref Frames
Format settings, CABAC : Yes
Format settings, Reference frames : 4 frames
Codec ID : V_MPEG4/ISO/AVC
Duration : 1 h 36 min
Bit rate mode : Constant
Bit rate : 6 523 kb/s
Nominal bit rate : 10 000 kb/s
Width : 1 920 pixels
Height : 800 pixels
Display aspect ratio : 2.40:1
Frame rate mode : Constant
Frame rate : 24.000 FPS
Color space : YUV
Chroma subsampling : 4:2:0
Bit depth : 8 bits
Scan type : Progressive
Bits/(Pixel*Frame) : 0.177
Stream size : 4.38 GiB (91%)
Default : Yes
Forced : No
Color range : Limited
Color primaries : BT.709
Transfer characteristics : BT.709
Matrix coefficients : BT.709

Audio
ID : 2
Format : E-AC-3
Format/Info : Enhanced AC-3
Commercial name : Dolby Digital Plus
Codec ID : A_EAC3
Duration : 1 h 36 min
Bit rate mode : Constant
Bit rate : 640 kb/s
Channel(s) : 6 channels
Channel layout : L R C LFE Ls Rs
Sampling rate : 48.0 kHz
Frame rate : 31.250 FPS (1536 SPF)
Compression mode : Lossy
Stream size : 440 MiB (9%)
Language : English
Service kind : Complete Main
Default : Yes
Forced : No

Text
ID : 3
Format : UTF-8
Codec ID : S_TEXT/UTF8
Codec ID/Info : UTF-8 Plain Text
Duration : 1 h 35 min
Bit rate : 52 b/s
Count of elements : 1060
Stream size : 37.0 KiB (0%)
Language : English
Default : No
Forced : No
https://img.btkiller.com/go?from=xd&key=8ec2ea54cb704d5ddbe62fa62ccdb174.pnghttps://img.btkiller.com/go?from=xd&key=5acca4b27871cfdd8ec0cbcd8dee40a9.pnghttps://img.btkiller.com/go?from=xd&key=ac2af6346abd0a4527e57823c9d45647.png



页: [1]
查看完整版本: 年轻人在此 Here.Are.the.Young.Men.2020.1080p.AMZN.WEBRip.DDP5.1.x264-ODEON 4.81GB