卡西迪奥 发表于 2021-9-26 20:12:05

鱼龙戏凤 The.Lady.Takes.a.Sailor.1949.1080p.WEBRip.AAC2.0.x264-WELP 3.50GB

https://img.btkiller.com/go?from=xd&key=bbb93409bc2602cbde126c759c1a0e32.jpeg

◎译  名 鱼龙戏凤
◎片  名 The Lady Takes a Sailor
◎年  代 1949
◎产  地 美国
◎类  别 喜剧
◎语  言 英语
◎上映日期 1950-08-04
◎豆瓣评分 /10 from 0 users
◎豆瓣链接 https://movie.douban.com/subject/3789968/
◎片  长 99 分钟
◎导  演 迈克尔·柯蒂兹 Michael Curtiz
◎编  剧 埃弗里特·弗里曼 Everett Freeman / Jerry Gruskin Jerry Gruskin
◎主  演 简·怀曼 Jane Wyman
      丹尼斯·摩根 Dennis Morgan
      伊芙·阿登 Eve Arden
      罗伯特·道格拉斯 Robert Douglas
      阿林·乔斯林 Allyn Joslyn
      汤姆·塔利 Tom Tully
      丽娜·罗迈 Lina Romay
      威廉·弗劳利 William Frawley
      Jack Boyle Jack Boyle
      弗兰克·卡迪 Frank Cady
      哈里·切希尔 Harry Cheshire
      弗雷德·克拉克 Fred Clark
      拉斯·康威 Russ Conway
      Luther Crockett Luther Crockett
      Ray Erlenborn Ray Erlenborn
      Hallene Hill Hallene Hill
      鲍勃·杰利森 Bob Jellison
      Jack Lee Jack Lee
      鲁思李 Ruth Lee
      Wendy Lee Wendy Lee
      Ruth Lewis Ruth Lewis
      约翰·麦圭尔 John McGuire
      Joe McTurk Joe McTurk
      查尔斯梅瑞狄斯 Charles Meredith
      雷·蒙哥马利 Ray Montgomery
      Kenneth Patterson Kenneth Patterson
      Stanley Prager Stanley Prager
      Emil Rameau Emil Rameau
      格兰丁·罗德 Grandon Rhodes
      Dick Ryan Dick Ryan
      Walter Shumway Walter Shumway
      奥兰·索尔 Olan Soule
      George Spaulding George Spaulding
      克雷格·史蒂文斯 Craig Stevens
      Tom Stevenson Tom Stevenson
      Josephine Whittell Josephine Whittell
      Leslie Kimmell Leslie Kimmell

◎标  签 美国电影 | 美国 | 爱情 | 喜剧 | M美国 | D迈克尔·柯蒂斯

◎简  介 https://img.btkiller.com/thinkphp.php

  Jennifer Smith heads a "Consumer Reports"-type company and her reputation for honesty is her greatest asset. While out boating one day she encounters a secret prototype submarine piloted by Bill Craig. Trying to explain her absence after her boat sinks becomes very difficult as Bill and his cohorts attempt to discredit her story.
Video
ID : 1
Format : AVC
Format/Info : Advanced Video Codec
Format profile : High@L4
Format settings : CABAC / 4 Ref Frames
Format settings, CABAC : Yes
Format settings, Reference frames : 4 frames
Codec ID : V_MPEG4/ISO/AVC
Duration : 1 h 38 min
Bit rate : 5 000 kb/s
Width : 1 920 pixels
Height : 1 080 pixels
Display aspect ratio : 16:9
Frame rate mode : Constant
Frame rate : 29.970 (30000/1001/189150) FPS
Color space : YUV
Chroma subsampling : 4:2:0
Bit depth : 8 bits
Scan type : Progressive
Bits/(Pixel*Frame) : 0.080
Stream size : 3.42 GiB (97%)
Writing library : x264 core 163 r3060 5db6aa6
Encoding settings : cabac=1 / ref=1 / deblock=1:0:0 / analyse=0x3:0x113 / me=hex / subme=2 / psy=1 / psy_rd=1.00:0.00 / mixed_ref=0 / me_range=16 / chroma_me=1 / trellis=0 / 8x8dct=1 / cqm=0 / deadzone=21.11 / fast_pskip=1 / chroma_qp_offset=0 / threads=34 / lookahead_threads=8 / sliced_threads=0 / nr=0 / decimate=1 / interlaced=0 / bluray_compat=0 / constrained_intra=0 / bframes=2 / b_pyramid=2 / b_adapt=0 / b_bias=0 / direct=1 / weightb=1 / open_gop=0 / weightp=1 / keyint=60 / keyint_min=6 / scenecut=0 / intra_refresh=0 / rc_lookahead=10 / rc=2pass / mbtree=1 / bitrate=5000 / ratetol=1.0 / qcomp=0.60 / qpmin=0 / qpmax=69 / qpstep=4 / cplxblur=20.0 / qblur=0.5 / vbv_maxrate=5000 / vbv_bufsize=5000 / nal_hrd=none / filler=0 / ip_ratio=1.40 / aq=1:1.00
Default : Yes
Forced : No

Audio
ID : 2
Format : AAC LC
Format/Info : Advanced Audio Codec Low Complexity
Codec ID : A_AAC-2
Duration : 1 h 38 min
Bit rate : 126 kb/s
Channel(s) : 2 channels
Channel layout : L R
Sampling rate : 44.1 kHz
Frame rate : 43.066 FPS (1024 SPF)
Compression mode : Lossy
Stream size : 88.7 MiB (2%)
Language : English
Default : Yes
Forced : No

Text #1
ID : 3
Format : UTF-8
Codec ID : S_TEXT/UTF8
Codec ID/Info : UTF-8 Plain Text
Duration : 1 h 37 min
Bit rate : 85 b/s
Count of elements : 2057
Stream size : 61.5 KiB (0%)
Language : English
Default : No
Forced : No

Text #2
ID : 4
Format : UTF-8
Codec ID : S_TEXT/UTF8
Codec ID/Info : UTF-8 Plain Text
Duration : 1 h 38 min
Bit rate : 86 b/s
Count of elements : 2118
Stream size : 62.7 KiB (0%)
Title : SDH
Language : English
Default : No
Forced : No
https://img.btkiller.com/go?from=xd&key=ab3b2f053b6bb532bcb19f29b68f6ee6.pnghttps://img.btkiller.com/go?from=xd&key=de8eb523ebfbdaaa3f0fc6562e2789f9.pnghttps://img.btkiller.com/go?from=xd&key=8c5da3ff38b0cc5ebdbb25dbe92066ba.png



页: [1]
查看完整版本: 鱼龙戏凤 The.Lady.Takes.a.Sailor.1949.1080p.WEBRip.AAC2.0.x264-WELP 3.50GB