卡西迪奥 发表于 2021-9-26 20:14:11

神秘岛 Mysterious.Island.2010.1080p.BluRay.x264-RUSTED 6.31GB

https://img.btkiller.com/go?from=xd&key=75cf5ea5d07f93011472b0283313e4bd.jpeg

◎译  名 神秘岛
◎片  名 Mysterious Island
◎年  代 2012
◎产  地 美国
◎类  别 科幻 / 冒险
◎语  言 英语
◎上映日期 2012-02-11
◎IMDb评分 3.5/10 from 1051 users
◎IMDb链接 https://www.imdb.com/title/tt1705125/
◎豆瓣评分 /10 from 0 users
◎豆瓣链接 https://movie.douban.com/subject/5349211/
◎片  长 91分钟
◎导  演 马克·谢泼德 Mark Sheppard
◎编  剧 儒勒·凡尔纳 Jules Verne
◎主  演 吉娜·赫尔顿 Gina Holden
      洛奇林·莫罗 Lochlyn Munro
      普路特·泰勒·文斯 Pruitt Taylor Vince
      苏西·阿布罗梅特 Susie Abromeit
      马克·谢泼德 Mark Sheppard

◎标  签 美国 | 科幻 | 电影 | 魔幻 | 小说改编 | 经济 | 【美国】 | 2012

◎简  介 https://img.btkiller.com/thinkphp.php

  和原著一样,故事仍然发生在美国内战期间,主角们乘坐热气球漂流到神秘岛。不同的是他们在岛上遇到了两个美女,她们是从百慕大三角意外穿越回去的现代人。这群人要一起对付凶恶的海盗、恐怖的生物和即将爆发的火山。最后他们遇到尼莫船长,在他的帮助下寻找逃离神秘岛的办法。
Video
ID : 1
Format : AVC
Format/Info : Advanced Video Codec
Format profile : High@L4.1
Format settings : CABAC / 4 Ref Frames
Format settings, CABAC : Yes
Format settings, Reference frames : 4 frames
Codec ID : V_MPEG4/ISO/AVC
Duration : 1 h 31 min
Bit rate : 7 875 kb/s
Width : 1 920 pixels
Height : 1 080 pixels
Display aspect ratio : 16:9
Frame rate mode : Constant
Frame rate : 25.000 FPS
Color space : YUV
Chroma subsampling : 4:2:0
Bit depth : 8 bits
Scan type : Progressive
Bits/(Pixel*Frame) : 0.152
Stream size : 5.05 GiB (80%)
Writing library : x264 core 164 r3065 ae03d92
Encoding settings : cabac=1 / ref=4 / deblock=1:-3:-3 / analyse=0x3:0x133 / me=umh / subme=9 / psy=1 / psy_rd=1.00:0.00 / mixed_ref=1 / me_range=16 / chroma_me=1 / trellis=2 / 8x8dct=1 / cqm=0 / deadzone=21,11 / fast_pskip=0 / chroma_qp_offset=-2 / threads=24 / lookahead_threads=2 / sliced_threads=0 / nr=0 / decimate=0 / interlaced=0 / bluray_compat=0 / constrained_intra=0 / bframes=3 / b_pyramid=2 / b_adapt=2 / b_bias=0 / direct=3 / weightb=1 / open_gop=0 / weightp=2 / keyint=250 / keyint_min=25 / scenecut=40 / intra_refresh=0 / rc=crf / mbtree=0 / crf=20.0 / qcomp=0.60 / qpmin=0 / qpmax=69 / qpstep=4 / ip_ratio=1.40 / pb_ratio=1.30 / aq=3:0.70
Language : English
Default : Yes
Forced : No
Color range : Limited
Matrix coefficients : BT.709

Audio
ID : 2
Format : DTS XLL
Format/Info : Digital Theater Systems
Commercial name : DTS-HD Master Audio
Codec ID : A_DTS
Duration : 1 h 31 min
Bit rate mode : Variable
Bit rate : 1 959 kb/s
Channel(s) : 6 channels
Channel layout : C L R Ls Rs LFE
Sampling rate : 48.0 kHz
Frame rate : 93.750 FPS (512 SPF)
Bit depth : 16 bits
Compression mode : Lossless
Stream size : 1.26 GiB (20%)
Language : English
Default : Yes
Forced : No

Text
ID : 3
Format : PGS
Muxing mode : zlib
Codec ID : S_HDMV/PGS
Codec ID/Info : Picture based subtitle format used on BDs/HD-DVDs
Duration : 1 h 27 min
Bit rate : 19.8 kb/s
Count of elements : 1849
Stream size : 12.4 MiB (0%)
Title : German
Language : German
Default : No
Forced : No

Menu
00:00:00.000 : Chapter 01
00:08:00.000 : Chapter 02
00:16:00.000 : Chapter 03
00:24:00.000 : Chapter 04
00:32:00.000 : Chapter 05
00:40:00.000 : Chapter 06
00:48:00.000 : Chapter 07
00:56:00.000 : Chapter 08
01:04:00.000 : Chapter 09
01:12:00.000 : Chapter 10
01:16:00.000 : Chapter 11
01:22:00.000 : Chapter 12
https://img.btkiller.com/go?from=xd&key=f548edb072fd32d61a6ee2f22f8963cd.jpeg



页: [1]
查看完整版本: 神秘岛 Mysterious.Island.2010.1080p.BluRay.x264-RUSTED 6.31GB