卡西迪奥 发表于 2021-9-26 22:31:58

社交网络/Facebook的故事 The.Social.Network.2010.1080p.BluRay.x264.DTS-HD.MA.7.1-FGT 13.57GB

https://img.btkiller.com/go?from=xd&key=b8ba1a48c9a8aa02be1a62a9b89e71c6.jpeg

◎译  名 社交网络/Facebook的故事/社群网战(台)/脸书狂潮/该页无法显示(豆友译名)
◎片  名 The Social Network
◎年  代 2010
◎产  地 美国
◎类  别 剧情 / 传记
◎语  言 英语,法语
◎上映日期 2010-09-24(纽约电影节) / 2010-10-01(美国)
◎豆瓣评分 8.2/10 from 407102 users
◎豆瓣链接 https://movie.douban.com/subject/3205624/
◎片  长 120 分钟
◎导  演 大卫·芬奇 David Fincher
◎编  剧 艾伦·索金 Aaron Sorkin / 本·麦兹里奇 Ben Mezrich
◎主  演 杰西·艾森伯格 Jesse Eisenberg
      安德鲁·加菲尔德 Andrew Garfield
      贾斯汀·汀布莱克 Justin Timberlake
      鲁妮·玛拉 Rooney Mara
      约瑟夫·梅泽罗 Joseph Mazzello
      艾米·汉莫 Armie Hammer
      乔什·平茨 Josh Pence
      艾比·森哈 Abhi Sinha
      布兰达·宋 Brenda Song
      达科塔·约翰逊 Dakota Johnson
      艾伦·索金 Aaron Sorkin
      艾玛·菲茨帕特里克 Emma Fitzpatrick
      玛莱斯·裘 Malese Jow
      马克·索尔 Mark Saul
      达斯汀·菲兹莫斯 Dustin Fitzsimons
      帕特里克·梅佩尔 Patrick Mapel
      玛丽亚·波纳 Mariah Bonner
      菲丽莎·特雷尔 Felisha Terrell
      华莱士·朗翰 Wallace Langham
      巴里·里维斯顿 Barry Livingston
      莱利·沃克 Riley Voelkel
      斯科蒂·克罗 Scotty Crowe
      卡尔文·迪恩 Calvin Dean
      夏恩·阿德勒 Shane Adler
      拉什达·琼斯 Rashida Jones
      卡赖伯·兰德里·琼斯 Caleb Landry Jones
      特莱沃·怀特 Trevor Wright
      麦克思·明格拉 Max Minghella
      凯特琳·杰拉德 Caitlin Gerard

◎标  签 Facebook | 传记 | 美国 | 大卫·芬奇 | 剧情 | 美国电影 | 2010 | DavidFincher

◎简  介 https://img.btkiller.com/thinkphp.php

  2003年秋,哈佛大学。恃才放旷的天才学生马克·扎克伯格(Jesse Eisenberg 饰)被女友甩掉,愤怒之际,马克利用黑客手段入侵了学校的系统,盗取了校内所有漂亮女生的资料,并制作名为“Facemash”的网站供同学们对辣妹评分。他的举动引起了轰动,一度致令哈佛服 务器几近崩溃,马克因此遭到校方的惩罚。正所谓因祸得福,马克的举动引起了温克莱沃斯兄弟的注意,他们邀请马克加入团队,共同建立一个社交网站。与此同时,马克也建立了日后名声大噪的“Facebook”。
  
  经过一番努力,Facebook的名气越来越大,马克的财富与日俱增。然而各种麻烦与是非接踵而来,昔日的好友也反目成仇……

◎获奖情况

  第83届奥斯卡金像奖 ?(2011)
  最佳影片(提名) 迈克·德·鲁卡?/?斯科特·鲁丁?/?切安·查芬?/?达纳·布努内蒂
  最佳导演(提名) 大卫·芬奇
  最佳男主角(提名) 杰西·艾森伯格
  最佳改编剧本 艾伦·索金
  最佳摄影(提名) 杰夫·克隆威斯
  最佳剪辑 柯克·巴克斯特?/?安格斯·瓦尔
  最佳混音(提名) 伦·克斯?/?马克·温加滕?/?大卫·帕克?/?迈克尔·斯曼内科
  最佳原创配乐 特伦特·雷诺?/?阿提喀斯·罗斯
  
  第68届金球奖 ?(2011)
  电影类最佳剧情片
  电影类最佳导演 大卫·芬奇
  电影类剧情片最佳男主角(提名) 杰西·艾森伯格
  电影类最佳男配角(提名) 安德鲁·加菲尔德
  电影类最佳编剧 艾伦·索金
  电影类最佳原创配乐 特伦特·雷诺?/?阿提喀斯·罗斯
  
  第35届日本电影学院奖 ?(2012)
  最佳外语片(提名)
  
  第55届意大利大卫奖 ?(2011)
  最佳外语片(提名) 大卫·芬奇
  
  第20届MTV电影奖 ?(2011)
  MTV电影奖年度电影(提名)
  MTV电影奖最佳男演员(提名) 杰西·艾森伯格
  MTV电影奖突破表演奖(提名) 安德鲁·加菲尔德
  MTV电影奖最佳台词(提名) 杰西·艾森伯格?/?贾斯汀·汀布莱克?/?安德鲁·加菲尔德
  
  第76届纽约影评人协会奖 ?(2010)
  最佳影片
  最佳导演 大卫·芬奇
  
  第11届美国电影学会奖 ?(2010)
  年度佳片
  
  第9届华盛顿影评人协会奖 ?(2010)
  最佳影片
  最佳导演 大卫·芬奇
  最佳男主角(提名) 杰西·艾森伯格
  最佳男配角(提名) 安德鲁·加菲尔德
  最佳改编剧本 艾伦·索金
  最佳群戏(提名)
  最佳摄影(提名) 杰夫·克隆威斯
  最佳配乐(提名) 特伦特·雷诺?/?阿提喀斯·罗斯
  
  第31届波士顿影评人协会奖 ?(2010)
  最佳影片
  最佳导演 大卫·芬奇
  最佳男主角 杰西·艾森伯格
  最佳男配角(提名) 安德鲁·加菲尔德
  最佳剧本 艾伦·索金
  最佳音乐 特伦特·雷诺?/?阿提喀斯·罗斯
  
  第15届圣地亚哥影评人协会奖 ?(2010)
  最佳影片(提名)
  最佳导演(提名) 大卫·芬奇
  最佳男主角(提名) 杰西·艾森伯格
  最佳改编剧本 艾伦·索金
  最佳剪辑(提名) 柯克·巴克斯特?/?安格斯·瓦尔
  最佳配乐(提名) 特伦特·雷诺?/?阿提喀斯·罗斯
  最佳群像表演(提名)
  
  第23届芝加哥影评人协会奖 ?(2010)
  最佳影片
  最佳导演 大卫·芬奇
  最佳男主角(提名) 杰西·艾森伯格
  最佳男配角(提名) 安德鲁·加菲尔德
  最佳改编剧本 艾伦·索金
  最佳摄影(提名) 杰夫·克隆威斯
  最佳原创配乐(提名) 特伦特·雷诺?/?阿提喀斯·罗斯
  最具潜力演员(提名) 艾米·汉莫
  
  第44届堪萨斯影评人协会奖 ?(2011)
  最佳影片
  最佳改编剧本 艾伦·索金
  
  第10届凤凰城影评人协会奖 ?(2010)
  最佳导演(提名) 大卫·芬奇
  最佳男主角(提名) 杰西·艾森伯格
  最佳男配角(提名) 安德鲁·加菲尔德
  最佳改编剧本 艾伦·索金
  最佳群像表演
  十佳影片
  
  第19届东南影评人协会奖 ?(2010)
  最佳影片
  最佳导演 大卫·芬奇
  最佳改编剧本 艾伦·索金
  最佳群像
  十大佳片
  
  第13届美国青少年选择奖 ?(2011)
  最佳剧情片男演员(提名) 杰西·艾森伯格
  最抢戏电影男星(提名) 安德鲁·加菲尔德?/?贾斯汀·汀布莱克
  ChoiceMovieBreakout:Male(提名) 艾米·汉莫
  
  第1届豆瓣电影鑫像奖 ?(2011)
  鑫豆单元最佳影片(外语)
  鑫豆单元最佳导演(外语) 大卫·芬奇
Video
ID : 1
Format : AVC
Format/Info : Advanced Video Codec
Format profile : High@L4.1
Format settings : CABAC / 5 Ref Frames
Format settings, CABAC : Yes
Format settings, Reference frames : 5 frames
Codec ID : V_MPEG4/ISO/AVC
Duration : 2 h 0 min
Bit rate : 11.5 Mb/s
Width : 1 920 pixels
Height : 800 pixels
Display aspect ratio : 2.40:1
Frame rate mode : Constant
Frame rate : 23.976 (24000/1001/189150) FPS
Color space : YUV
Chroma subsampling : 4:2:0
Bit depth : 8 bits
Scan type : Progressive
Bits/(Pixel*Frame) : 0.312
Stream size : 9.66 GiB (71%)
Writing library : x264 core 110 r1820 fdcf2ae
Encoding settings : cabac=1 / ref=5 / deblock=1:0:0 / analyse=0x3:0x133 / me=umh / subme=7 / psy=1 / psy_rd=1.00:0.00 / mixed_ref=1 / me_range=16 / chroma_me=1 / trellis=1 / 8x8dct=1 / cqm=0 / deadzone=21,11 / fast_pskip=1 / chroma_qp_offset=-2 / threads=12 / sliced_threads=0 / nr=0 / decimate=1 / interlaced=0 / constrained_intra=0 / bframes=3 / b_pyramid=2 / b_adapt=2 / b_bias=0 / direct=3 / weightb=1 / open_gop=0 / weightp=2 / keyint=250 / keyint_min=23 / scenecut=40 / intra_refresh=0 / rc=2pass / mbtree=0 / bitrate=11486 / ratetol=1.0 / qcomp=0.60 / qpmin=0 / qpmax=51 / qpstep=4 / cplxblur=20.0 / qblur=0.5 / ip_ratio=1.40 / pb_ratio=1.30 / aq=1:1.00
Default : Yes
Forced : No

Audio
ID : 2
Format : DTS XLL
Format/Info : Digital Theater Systems
Commercial name : DTS-HD Master Audio
Codec ID : A_DTS
Duration : 2 h 0 min
Bit rate mode : Variable
Bit rate : 4 154 kb/s
Channel(s) : 8 channels
Channel layout : C L R LFE Lb Rb Lss Rss
Sampling rate : 48.0 kHz
Frame rate : 93.750 FPS (512 SPF)
Bit depth : 24 bits
Compression mode : Lossless
Delay relative to video : 2 ms
Stream size : 3.49 GiB (26%)
Title : DTS-HD MA 7.1
Language : English
Default : No
Forced : No

Text #1
ID : 3
Format : UTF-8
Codec ID : S_TEXT/UTF8
Codec ID/Info : UTF-8 Plain Text
Duration : 1 h 54 min
Bit rate : 107 b/s
Count of elements : 2311
Stream size : 90.3 KiB (0%)
Title : SRT
Language : English
Default : No
Forced : No

Text #2
ID : 4
ID in the original source medium : 4768 (0x12A0)
Format : PGS
Muxing mode : zlib
Codec ID : S_HDMV/PGS
Codec ID/Info : Picture based subtitle format used on BDs/HD-DVDs
Duration : 1 h 54 min
Bit rate : 63.5 kb/s
Count of elements : 4636
Stream size : 51.9 MiB (0%)
Title : US SDH
Language : English
Default : No
Forced : No
Original source medium : Blu-ray

Text #3
ID : 5
ID in the original source medium : 4769 (0x12A1)
Format : PGS
Muxing mode : zlib
Codec ID : S_HDMV/PGS
Codec ID/Info : Picture based subtitle format used on BDs/HD-DVDs
Duration : 1 h 53 min
Bit rate : 59.7 kb/s
Count of elements : 4474
Stream size : 48.4 MiB (0%)
Title : US
Language : English
Default : No
Forced : No
Original source medium : Blu-ray

Text #4
ID : 6
ID in the original source medium : 4770 (0x12A2)
Format : PGS
Muxing mode : zlib
Codec ID : S_HDMV/PGS
Codec ID/Info : Picture based subtitle format used on BDs/HD-DVDs
Duration : 1 h 54 min
Bit rate : 63.5 kb/s
Count of elements : 4636
Stream size : 51.8 MiB (0%)
Title : UK SDH
Language : English
Default : No
Forced : No
Original source medium : Blu-ray

Text #5
ID : 7
ID in the original source medium : 4771 (0x12A3)
Format : PGS
Muxing mode : zlib
Codec ID : S_HDMV/PGS
Codec ID/Info : Picture based subtitle format used on BDs/HD-DVDs
Duration : 1 h 53 min
Bit rate : 59.7 kb/s
Count of elements : 4474
Stream size : 48.4 MiB (0%)
Title : UK
Language : English
Default : No
Forced : No
Original source medium : Blu-ray

Text #6
ID : 8
Format : PGS
Muxing mode : zlib
Codec ID : S_HDMV/PGS
Codec ID/Info : Picture based subtitle format used on BDs/HD-DVDs
Duration : 1 h 55 min
Bit rate : 30.0 kb/s
Count of elements : 4643
Stream size : 24.7 MiB (0%)
Language : Arabic
Default : No
Forced : No

Text #7
ID : 9
Format : PGS
Muxing mode : zlib
Codec ID : S_HDMV/PGS
Codec ID/Info : Picture based subtitle format used on BDs/HD-DVDs
Duration : 1 h 55 min
Bit rate : 59.4 kb/s
Count of elements : 4023
Stream size : 49.0 MiB (0%)
Language : Bulgarian
Default : No
Forced : No

Text #8
ID : 10
Format : PGS
Muxing mode : zlib
Codec ID : S_HDMV/PGS
Codec ID/Info : Picture based subtitle format used on BDs/HD-DVDs
Duration : 1 h 55 min
Bit rate : 50.5 kb/s
Count of elements : 5605
Stream size : 41.7 MiB (0%)
Language : Chinese
Default : No
Forced : No

Text #9
ID : 11
Format : PGS
Muxing mode : zlib
Codec ID : S_HDMV/PGS
Codec ID/Info : Picture based subtitle format used on BDs/HD-DVDs
Duration : 1 h 55 min
Bit rate : 56.2 kb/s
Count of elements : 4634
Stream size : 46.4 MiB (0%)
Language : Chinese
Default : No
Forced : No

Text #10
ID : 12
Format : PGS
Muxing mode : zlib
Codec ID : S_HDMV/PGS
Codec ID/Info : Picture based subtitle format used on BDs/HD-DVDs
Duration : 1 h 55 min
Bit rate : 60.5 kb/s
Count of elements : 4626
Stream size : 49.9 MiB (0%)
Language : Croatian
Default : No
Forced : No

Text #11
ID : 13
Format : PGS
Muxing mode : zlib
Codec ID : S_HDMV/PGS
Codec ID/Info : Picture based subtitle format used on BDs/HD-DVDs
Duration : 1 h 55 min
Bit rate : 43.3 kb/s
Count of elements : 4322
Stream size : 35.7 MiB (0%)
Language : Czech
Default : No
Forced : No

Text #12
ID : 14
Format : PGS
Muxing mode : zlib
Codec ID : S_HDMV/PGS
Codec ID/Info : Picture based subtitle format used on BDs/HD-DVDs
Duration : 1 h 55 min
Bit rate : 64.2 kb/s
Count of elements : 4512
Stream size : 53.0 MiB (0%)
Language : Estonian
Default : No
Forced : No

Text #13
ID : 15
Format : PGS
Muxing mode : zlib
Codec ID : S_HDMV/PGS
Codec ID/Info : Picture based subtitle format used on BDs/HD-DVDs
Duration : 1 h 55 min
Bit rate : 66.7 kb/s
Count of elements : 4602
Stream size : 55.1 MiB (0%)
Language : Greek
Default : No
Forced : No

Text #14
ID : 16
Format : PGS
Muxing mode : zlib
Codec ID : S_HDMV/PGS
Codec ID/Info : Picture based subtitle format used on BDs/HD-DVDs
Duration : 1 h 55 min
Bit rate : 45.3 kb/s
Count of elements : 4594
Stream size : 37.4 MiB (0%)
Language : Hebrew
Default : No
Forced : No

Text #15
ID : 17
Format : PGS
Muxing mode : zlib
Codec ID : S_HDMV/PGS
Codec ID/Info : Picture based subtitle format used on BDs/HD-DVDs
Duration : 1 h 55 min
Bit rate : 49.1 kb/s
Count of elements : 4640
Stream size : 40.5 MiB (0%)
Language : Hindi
Default : No
Forced : No

Text #16
ID : 18
Format : PGS
Muxing mode : zlib
Codec ID : S_HDMV/PGS
Codec ID/Info : Picture based subtitle format used on BDs/HD-DVDs
Duration : 1 h 55 min
Bit rate : 49.1 kb/s
Count of elements : 3491
Stream size : 40.5 MiB (0%)
Language : Hungarian
Default : No
Forced : No

Text #17
ID : 19
Format : PGS
Muxing mode : zlib
Codec ID : S_HDMV/PGS
Codec ID/Info : Picture based subtitle format used on BDs/HD-DVDs
Duration : 1 h 55 min
Bit rate : 61.6 kb/s
Count of elements : 3959
Stream size : 50.8 MiB (0%)
Language : Icelandic
Default : No
Forced : No

Text #18
ID : 20
Format : PGS
Muxing mode : zlib
Codec ID : S_HDMV/PGS
Codec ID/Info : Picture based subtitle format used on BDs/HD-DVDs
Duration : 1 h 55 min
Bit rate : 70.5 kb/s
Count of elements : 3448
Stream size : 58.1 MiB (0%)
Language : Indonesian
Default : No
Forced : No

Text #19
ID : 21
Format : PGS
Muxing mode : zlib
Codec ID : S_HDMV/PGS
Codec ID/Info : Picture based subtitle format used on BDs/HD-DVDs
Duration : 1 h 55 min
Bit rate : 30.7 kb/s
Count of elements : 4506
Stream size : 25.3 MiB (0%)
Language : Korean
Default : No
Forced : No

Text #20
ID : 22
Format : PGS
Muxing mode : zlib
Codec ID : S_HDMV/PGS
Codec ID/Info : Picture based subtitle format used on BDs/HD-DVDs
Duration : 1 h 55 min
Bit rate : 60.7 kb/s
Count of elements : 4499
Stream size : 50.1 MiB (0%)
Language : Lithuanian
Default : No
Forced : No

Text #21
ID : 23
Format : PGS
Muxing mode : zlib
Codec ID : S_HDMV/PGS
Codec ID/Info : Picture based subtitle format used on BDs/HD-DVDs
Duration : 1 h 55 min
Bit rate : 48.1 kb/s
Count of elements : 4486
Stream size : 39.7 MiB (0%)
Language : Polish
Default : No
Forced : No

Text #22
ID : 24
Format : PGS
Muxing mode : zlib
Codec ID : S_HDMV/PGS
Codec ID/Info : Picture based subtitle format used on BDs/HD-DVDs
Duration : 1 h 55 min
Bit rate : 67.5 kb/s
Count of elements : 4529
Stream size : 55.7 MiB (0%)
Language : Portuguese
Default : No
Forced : No

Text #23
ID : 25
Format : PGS
Muxing mode : zlib
Codec ID : S_HDMV/PGS
Codec ID/Info : Picture based subtitle format used on BDs/HD-DVDs
Duration : 1 h 55 min
Bit rate : 65.6 kb/s
Count of elements : 3987
Stream size : 54.1 MiB (0%)
Language : Romanian
Default : No
Forced : No

Text #24
ID : 26
Format : PGS
Muxing mode : zlib
Codec ID : S_HDMV/PGS
Codec ID/Info : Picture based subtitle format used on BDs/HD-DVDs
Duration : 1 h 55 min
Bit rate : 52.3 kb/s
Count of elements : 4436
Stream size : 43.2 MiB (0%)
Language : Serbian
Default : No
Forced : No

Text #25
ID : 27
Format : PGS
Muxing mode : zlib
Codec ID : S_HDMV/PGS
Codec ID/Info : Picture based subtitle format used on BDs/HD-DVDs
Duration : 1 h 55 min
Bit rate : 61.0 kb/s
Count of elements : 4624
Stream size : 50.3 MiB (0%)
Language : Slovak
Default : No
Forced : No

Text #26
ID : 28
Format : PGS
Muxing mode : zlib
Codec ID : S_HDMV/PGS
Codec ID/Info : Picture based subtitle format used on BDs/HD-DVDs
Duration : 1 h 55 min
Bit rate : 61.3 kb/s
Count of elements : 4620
Stream size : 50.6 MiB (0%)
Language : Slovenian
Default : No
Forced : No

Text #27
ID : 29
Format : PGS
Muxing mode : zlib
Codec ID : S_HDMV/PGS
Codec ID/Info : Picture based subtitle format used on BDs/HD-DVDs
Duration : 1 h 55 min
Bit rate : 43.5 kb/s
Count of elements : 4618
Stream size : 35.8 MiB (0%)
Language : Thai
Default : No
Forced : No

Text #28
ID : 30
Format : PGS
Muxing mode : zlib
Codec ID : S_HDMV/PGS
Codec ID/Info : Picture based subtitle format used on BDs/HD-DVDs
Duration : 1 h 55 min
Bit rate : 59.3 kb/s
Count of elements : 4507
Stream size : 48.9 MiB (0%)
Language : Turkish
Default : No
Forced : No

Menu
00:00:00.000 : Breakup
00:07:33.411 : FaceMash
00:17:15.409 : The Winklevoss Brothers
00:24:20.000 : Caribbean Night
00:31:07.115 : Thefacebook
00:34:47.502 : Harvard gentlemen
00:44:27.164 : The Girls
00:50:54.301 : Expanding
00:55:39.253 : Sean Parker
01:00:15.612 : Meetings
01:11:41.130 : Animal Cruelty
01:18:29.496 : California
01:24:22.474 : Henley Royal Regatta
01:33:16.966 : Freezing Account
01:38:04.087 : Dilution
01:47:09.715 : Leaving of Sean Parker
https://img.btkiller.com/go?from=xd&key=86b2dfcf88caac64d4644716b12b1eb5.pnghttps://img.btkiller.com/go?from=xd&key=ca09de520fd76c862b5745c3d02273de.pnghttps://img.btkiller.com/go?from=xd&key=fa07020297129d9696e19c157fbb1a46.png




页: [1]
查看完整版本: 社交网络/Facebook的故事 The.Social.Network.2010.1080p.BluRay.x264.DTS-HD.MA.7.1-FGT 13.57GB