威酷高清论坛

 找回密码
 立即注册
查看: 5|回复: 0

[BD-4K] 小羊肖恩2:末日农场 A.Shaun.the.Sheep.Movie.Farmageddon.2019.2160p.BluRay.x264.8bit.SDR.DTS-HD.MA.TrueHD.7.1.Atmos-SWTYBLZ 20.10GB

[复制链接]
  • TA的每日心情
    擦汗
    昨天 17:21
  • 签到天数: 7 天

    [LV.3]偶尔看看II

    发表于 2020-2-13 21:56:54 | 显示全部楼层 |阅读模式


    ◎译  名 小羊肖恩2:末日农场 / Shaun the Sheep 2 / 小羊肖恩2 / 小羊肖恩2:大决战 / 小羊肖恩大电影2 / 小羊肖恩大电影:农场末日 / 小羊肖恩:农场末日 / 笑笑羊大电影2:外星人来了!(台)
    ◎片  名 Shaun the Sheep Movie: Farmageddon
    ◎年  代 2019
    ◎产  地 英国 / 法国 / 美国
    ◎类  别 喜剧 / 科幻 / 动画 / 冒险
    ◎语  言 英语
    ◎上映日期 2019-09-26(德国) / 2019-10-18(英国) / 2019-12-28(中国大陆)
    ◎IMDb评分 7.0/10 from 2834 users
    ◎IMDb链接 https://www.imdb.com/title/tt6193408
    ◎豆瓣评分 8.0/10 from 5744 users
    ◎豆瓣链接 https://movie.douban.com/subject/26628382/
    ◎片  长 87分钟
    ◎导  演 威尔·比彻 Will Becher / 理查德·费兰 Richard Phelan
    ◎编  剧 Jon Brown / 马克·伯顿 Mark Burton / 尼克·帕克 Nick Park
    ◎主  演 贾斯汀·弗莱彻 Justin Fletcher
          约翰·斯帕克斯 John Sparkes
          克里斯·莫雷尔 Chris Morrell
          安迪·尼曼 Andy Nyman
          戴维·霍尔特 David Holt
          凯特·哈伯 Kate Harbour
          阿玛莉亚·维塔莱 Amalia Vitale
          乔·萨格 Joe Sugg


    ◎标  签 动画 | 小羊肖恩 | 英国 | 喜剧 | 粘土 | 2019 | 动画长片 | 电影

    ◎简  介

      宁静祥和的农场里,小羊肖恩和伙伴们大开脑洞,做着各种挑战生命极限的游戏。这可气坏了牧羊犬,他接二连三制定禁令,防止羊们兴风作浪。肖恩哪能随便被人摆布?他想出鬼点子,通过电话订购了披萨,谁知却引来了一个始料未及的不速之客。来者是一个名叫噜啦的外星宝宝。虽然语言不通,但通过肢体语言,肖恩终于弄清噜啦想要找到飞船回到自己的家乡。经过一番缜密的策划,肖恩终于和这个新朋友踏上寻找飞船的征途。与此同时,不明飞行物的造访在小镇引起轰动,同时也惊动了一个专门追寻外星生物的政府机构。
      本来一波三折的寻找飞船之旅,如今又加入了气势汹汹的对手,肖恩他们将面临前所未有的考验……

    ◎获奖情况

      第73届英国电影学院奖(2020)
      电影奖 最佳动画片(提名)

      第22届英国独立电影奖(2019)
      最佳新人导演(提名) 理查德·费兰 / 威尔·比彻
      最佳视效

      第24届金卫星奖(2020)
      电影部门 最佳动画片(提名)

      第40届伦敦影评人协会奖(2020)
      技术成就奖(提名) 理查德·费兰 / 威尔·比彻
    Video
    ID : 1
    Format : AVC
    Format/Info : Advanced Video Codec
    Format profile : High@L5.1
    Format settings : CABAC / 5 Ref Frames
    Format settings, CABAC : Yes
    Format settings, Reference frames : 5 frames
    Codec ID : V_MPEG4/ISO/AVC
    Duration : 1 h 26 min
    Bit rate : 24.0 Mb/s
    Width : 3 840 pixels
    Height : 1 608 pixels
    Display aspect ratio : 2.40:1
    Frame rate mode : Constant
    Frame rate : 24.000 FPS
    Color space : YUV
    Chroma subsampling : 4:2:0
    Bit depth : 8 bits
    Scan type : Progressive
    Bits/(Pixel*Frame) : 0.162
    Stream size : 14.6 GiB (73%)
    Title : A.Shaun.the.Sheep.Movie.Farmageddon.2019.2160p.BluRay.x264.8bit.SDR.DTS-HD.MA.TrueHD.7.1.Atmos-SWTYBLZ
    Writing library : x264 core 157 r2935 545de2f
    Encoding settings : cabac=1 / ref=5 / deblock=1:-1:-1 / analyse=0x3:0x113 / me=umh / subme=10 / psy=1 / psy_rd=1.00:0.15 / mixed_ref=1 / me_range=48 / chroma_me=1 / trellis=2 / 8x8dct=1 / cqm=0 / deadzone=21,11 / fast_pskip=1 / chroma_qp_offset=-3 / threads=36 / lookahead_threads=3 / sliced_threads=0 / nr=0 / decimate=0 / interlaced=0 / bluray_compat=0 / constrained_intra=0 / bframes=3 / b_pyramid=2 / b_adapt=2 / b_bias=0 / direct=3 / weightb=1 / open_gop=0 / weightp=2 / keyint=250 / keyint_min=24 / scenecut=40 / intra_refresh=0 / rc_lookahead=50 / rc=crf / mbtree=1 / crf=18.0 / qcomp=0.60 / qpmin=0 / qpmax=69 / qpstep=4 / ip_ratio=1.40 / aq=1:1.00
    Default : Yes
    Forced : No

    Audio #1
    ID : 2
    Format : MLP FBA 16-ch
    Format/Info : Meridian Lossless Packing FBA with 16-channel presentation
    Commercial name : Dolby TrueHD with Dolby Atmos
    Codec ID : A_TRUEHD
    Duration : 1 h 26 min
    Bit rate mode : Variable
    Bit rate : 4 127 kb/s
    Maximum bit rate : 6 426 kb/s
    Channel(s) : 8 channels
    Channel layout : L R C LFE Ls Rs Lb Rb
    Sampling rate : 48.0 kHz
    Frame rate : 1 200.000 FPS (40 SPF)
    Compression mode : Lossless
    Delay relative to video : 3 s 0 ms
    Stream size : 2.50 GiB (13%)
    Title : A.Shaun.the.Sheep.Movie.Farmageddon.2019.2160p.BluRay.x264.8bit.SDR.DTS-HD.MA.TrueHD.7.1.Atmos-SWTYBLZ
    Language : English
    Default : Yes
    Forced : No
    Number of dynamic objects : 11
    Bed channel count : 1 channel
    Bed channel configuration : LFE

    Audio #2
    ID : 3
    Format : DTS XLL
    Format/Info : Digital Theater Systems
    Commercial name : DTS-HD Master Audio
    Codec ID : A_DTS
    Duration : 1 h 26 min
    Bit rate mode : Variable
    Bit rate : 4 043 kb/s
    Channel(s) : 8 channels
    Channel layout : C L R LFE Lb Rb Lss Rss
    Sampling rate : 48.0 kHz
    Frame rate : 93.750 FPS (512 SPF)
    Bit depth : 24 bits
    Compression mode : Lossless
    Stream size : 2.45 GiB (12%)
    Title : A.Shaun.the.Sheep.Movie.Farmageddon.2019.2160p.BluRay.x264.8bit.SDR.DTS-HD.MA.TrueHD.7.1.Atmos-SWTYBLZ
    Language : English
    Default : No
    Forced : No

    Audio #3
    ID : 4
    Format : AC-3
    Format/Info : Audio Coding 3
    Commercial name : Dolby Digital
    Codec ID : A_AC3
    Duration : 1 h 26 min
    Bit rate mode : Constant
    Bit rate : 640 kb/s
    Channel(s) : 6 channels
    Channel layout : L R C LFE Ls Rs
    Sampling rate : 48.0 kHz
    Frame rate : 31.250 FPS (1536 SPF)
    Compression mode : Lossy
    Delay relative to video : 3 s 0 ms
    Stream size : 397 MiB (2%)
    Title : A.Shaun.the.Sheep.Movie.Farmageddon.2019.2160p.BluRay.x264.8bit.SDR.DTS-HD.MA.TrueHD.7.1.Atmos-SWTYBLZ
    Language : English
    Service kind : Complete Main
    Default : No
    Forced : No

    Text #1
    ID : 5
    Format : UTF-8
    Codec ID : S_TEXT/UTF8
    Codec ID/Info : UTF-8 Plain Text
    Duration : 1 h 26 min
    Bit rate : 2 b/s
    Count of elements : 262
    Stream size : 1.34 KiB (0%)
    Title : English-SRT
    Language : English
    Default : Yes
    Forced : No

    Text #2
    ID : 6
    Format : UTF-8
    Codec ID : S_TEXT/UTF8
    Codec ID/Info : UTF-8 Plain Text
    Duration : 1 h 26 min
    Bit rate : 28 b/s
    Count of elements : 1178
    Stream size : 17.8 KiB (0%)
    Title : English-SDH-SRT
    Language : English
    Default : No
    Forced : No

    Text #3
    ID : 7
    Format : PGS
    Muxing mode : zlib
    Codec ID : S_HDMV/PGS
    Codec ID/Info : Picture based subtitle format used on BDs/HD-DVDs
    Duration : 1 h 26 min
    Bit rate : 24.2 kb/s
    Count of elements : 2356
    Stream size : 14.9 MiB (0%)
    Title : English-PGS
    Language : English
    Default : No
    Forced : No

    Menu
    00:00:00.000 : en:Chapter 01
    00:06:26.208 : en:Chapter 02
    00:10:53.375 : en:Chapter 03
    00:17:35.500 : en:Chapter 04
    00:22:49.791 : en:Chapter 05
    00:32:55.666 : en:Chapter 06
    00:38:22.791 : en:Chapter 07
    00:44:31.416 : en:Chapter 08
    00:54:47.916 : en:Chapter 09
    01:01:03.208 : en:Chapter 10
    01:05:51.750 : en:Chapter 11
    01:12:29.041 : en:Chapter 12





    本帖子中包含更多资源

    您需要 登录 才可以下载或查看,没有帐号?立即注册

    x
    回复

    使用道具 举报

    您需要登录后才可以回帖 登录 | 立即注册

    本版积分规则

    QQ|广告友链合作联系QQ1820944494|小黑屋|威酷高清影视论坛

    GMT+8, 2020-2-22 17:52 , Processed in 0.021346 second(s), 12 queries , Gzip On, MemCached On.

    Powered by vkugq.net

    © 2008-2019 vkugq.net Inc.

    快速回复 返回顶部 返回列表