威酷高清论坛

 找回密码
 立即注册
查看: 445|回复: 10
收起左侧

[剧情] 白兰花的姑娘们 Girls.of.the.White.Orchid.1983.1080p.AMZN.WEBRip.DDP2.0.x264-CURLY 9.90G

[复制链接]
回帖奖励 9910 酷豆 回复本帖可获得 10 酷豆奖励! 每人限 1 次
  • TA的每日心情
    奋斗
    6 天前
  • 签到天数: 8 天

    [LV.3]偶尔看看II

    卡西迪奥 发表于 2020-2-23 19:55:31 | 显示全部楼层 |阅读模式
    & E" S7 ]  M8 d( b
    ! Y) H! I, Q: {: M1 B/ \
    ◎译  名 白兰花的姑娘们 / Death Ride to Osaka7 V8 S( t# z) O3 n- m7 z
    ◎片  名 Girls of the White Orchid
    # ?  S4 g  F2 @( L9 o" ]& w1 Q' y◎年  代 1983
    3 [2 ^0 r/ j1 n; w◎产  地 美国
    4 I! g! [$ }5 j" [. s+ M◎类  别 剧情 / 犯罪
    1 \( k0 H% [4 q8 X5 e* ^* ^( i◎语  言 英语4 ~0 \1 H& S& @
    ◎上映日期 1983
    ! T& p: @5 A9 z◎IMDb评分 4.9/10 from 221 users* z, o+ v. t9 {1 v& I) d
    ◎IMDb链接 https://www.imdb.com/title/tt0085595* Q5 _0 i5 N7 }& T8 \6 B
    ◎豆瓣评分 0/10 from 0 users3 C* }' u; R# P- m
    ◎豆瓣链接 https://movie.douban.com/subject/5049917/( J1 ^+ w" U4 P% v- k6 u8 S% h
    ◎片  长 96分钟6 |1 l# }6 ^# H9 T$ Z! A4 |
    ◎导  演 Jonathan Kaplan8 ^, G& s6 _. r3 n/ l
    ◎编  剧 Tom Allard
    , D( a9 @: u0 K. b% n/ _1 `% B◎主  演 詹妮弗·杰森·李 Jennifer Jason Leigh- [! R( L8 O) X0 M! a

    , y3 s" I* _. S+ n
    $ I+ w/ S+ x: C  y! N% b- ^/ A& J◎标  签 美国电影 | 美国 | 1983$ b& G( q6 @4 j7 U; b3 x% l2 g
    2 g6 D3 n2 g( f: z0 p) s: D' A" j
    ◎简  介 / R  B, i' l% y4 h; \1 y

      z# w1 J0 B  T& s  S  暂无相关剧情介绍
      N  M2 Q+ @- |- A" |/ c9 u2 _
    Video
    & H4 R+ d' d8 A" IID : 1
    9 c3 w, a1 t5 E3 uFormat : AVC
    3 _0 [6 v' P4 y0 X% qFormat/Info : Advanced Video Codec7 F, [; l9 j, a; U. A1 W
    Format profile : High@L4' L1 W+ d; [' _) P
    Format settings : CABAC / 4 Ref Frames+ x" X2 `* e8 D7 X$ c: K' H& X
    Format settings, CABAC : Yes
    % ^: I8 @0 Y8 e; ^) y5 e! _Format settings, Reference frames : 4 frames
      H3 S9 r  a8 c8 ECodec ID : V_MPEG4/ISO/AVC7 r1 n5 b& W. I( B7 M" O- T' Z
    Duration : 1 h 37 min
    ' L5 r. H* X- N: MBit rate : 14.3 Mb/s- k8 a. K+ h! O. P# @
    Width : 1 920 pixels: p! K+ m2 n% r; T4 {
    Height : 1 080 pixels1 x% }2 v( C$ ]
    Display aspect ratio : 16:9* _5 n! ~& d9 `1 R: T& v
    Frame rate mode : Constant
    , b5 l. S6 d* W5 V  CFrame rate : 24.000 FPS9 V* A1 ^' z, J2 Q
    Color space : YUV; [$ o/ K) G3 k: J" h0 a
    Chroma subsampling : 4:2:0
    ( [. J9 p$ j7 W9 L$ JBit depth : 8 bits( }9 B- n+ \' u2 j, c4 O: Q
    Scan type : Progressive
    % |+ R1 p# D' T, j0 l* ~* WBits/(Pixel*Frame) : 0.286
    & u1 W1 e* M; R$ z# CStream size : 9.75 GiB (98%)3 e9 Y% t1 f+ A( t) Y
    Default : Yes- e8 r! L& X4 O
    Forced : No1 p$ o2 x! Y3 [: l! s3 P: `
    Color range : Limited$ n8 P+ T0 h& U. D. H4 y
    Color primaries : BT.709
    0 \  f5 c  P% O2 I% w+ fTransfer characteristics : BT.709
    $ d) L1 ?' X4 F1 XMatrix coefficients : BT.7092 ]* i% y% a5 T" S! A) s/ B

    3 X4 U: b* K! g+ C' g  JAudio
    ; ?4 q1 b) Y- @  _6 UID : 29 F$ u2 a* M2 G. x- o# W8 q
    Format : E-AC-3) ]# x1 q% j9 R- U+ w
    Format/Info : Enhanced AC-30 f- x, X8 y( s* @4 p. O
    Commercial name : Dolby Digital Plus) {1 W: n( C8 F; G( C: ]) s
    Codec ID : A_EAC3
    6 ^( |$ I1 X. x" {% e; X' ^Duration : 1 h 37 min
    9 d# {( O; {9 w* a& ~+ HBit rate mode : Constant' @: H+ @$ G7 u0 |$ G
    Bit rate : 224 kb/s# Q, ^) q9 j5 f2 X) s. E# U  q
    Channel(s) : 2 channels: i- L+ T6 r7 n$ `6 \& }
    Channel layout : L R! E; ~! m$ E/ r9 x& B9 q& o$ @
    Sampling rate : 48.0 kHz
    - x) ], z; ?1 B, `2 \& t5 a, J3 l$ dFrame rate : 31.250 FPS (1536 SPF)7 M+ ?: Y* r0 L. W- u7 ^7 P
    Compression mode : Lossy! ~; a9 W7 @: l/ _! n
    Stream size : 157 MiB (2%)
    ( X" Z8 ]- i8 P( z0 ?, GTitle : English
    - h  H3 y" S+ i( ^) l1 LLanguage : English4 l" R2 F7 a  d5 m: l6 C
    Service kind : Complete Main8 A( L" m5 O7 U8 R' R1 ]$ J# I
    Default : Yes4 u" p( K1 o, [; l# v% j$ A5 m9 O6 q
    Forced : No
    ) g# ~3 D; ?8 d- r7 k! p4 U3 A  I
    / I( @/ m; O$ W! jText! _/ ^) J" J& B& _' S
    ID : 3
    8 ?7 E8 E, C1 P9 X- bFormat : UTF-8* @7 W; E! R" j
    Codec ID : S_TEXT/UTF8
    1 p/ L' k4 |( g% d  tCodec ID/Info : UTF-8 Plain Text8 x, f. r. D- n& g+ C) j$ l
    Duration : 1 h 37 min' U, p) C# o/ T' t/ A  E
    Bit rate : 51 b/s
    2 D7 {0 s1 b4 V) W( _Count of elements : 1384
    , |% n4 S9 [: L# |Stream size : 37.2 KiB (0%)
    * G, C3 a( N* T) `; NTitle : English [SDH]  [( G0 O3 v# E; |  L
    Language : English
    5 A' ]1 l, Z, a+ D( h) VDefault : No
    5 ^2 h2 ~# X  ^Forced : No

    $ ?( n1 l( x- _5 G3 k& ^
    6 L# b( V. O$ [% I0 b, j# c
    2 f/ A- K  ~0 Q& F% _
    % F; H( U7 D6 q, [# ]! X  {, P" {2 |) l+ Y2 \1 u5 q0 d

    : v4 J1 A- K" L8 a$ m8 U
    2 I" W5 S+ G  k

    本帖子中包含更多资源

    您需要 登录 才可以下载或查看,没有帐号?立即注册

    x
    回复

    使用道具 举报

  • TA的每日心情
    开心
    昨天 09:32
  • 签到天数: 109 天

    [LV.6]常住居民II

    azhonglaile 发表于 2020-2-27 16:15:52 | 显示全部楼层

    回帖奖励 +10 酷豆

    影视帝国、飞鸟娱乐、伊甸园、悠悠鸟、电影天堂、圣城家园、龙网都是我甚是思念的威酷版主有精品
    回复 支持 0 反对 1

    使用道具 举报

  • TA的每日心情

    4 小时前
  • 签到天数: 359 天

    [LV.8]以坛为家I

    liyu119 发表于 2020-2-23 20:00:01 | 显示全部楼层

    回帖奖励 +10 酷豆

    谢谢迪奥大佬分享
    回复 支持 反对

    使用道具 举报

  • TA的每日心情
    开心
    2020-5-15 11:19
  • 签到天数: 42 天

    [LV.5]常住居民I

    冷蓝色眼泪 发表于 2020-2-27 16:50:04 | 显示全部楼层

    回帖奖励 +10 酷豆

    谢谢楼主的分享,也祝福楼主新年发大财,行大运
    回复 支持 反对

    使用道具 举报

  • TA的每日心情
    开心
    3 天前
  • 签到天数: 77 天

    [LV.6]常住居民II

    Fighter 发表于 2020-2-27 22:30:35 | 显示全部楼层

    回帖奖励 +10 酷豆

    这个片子还真没看过,感谢无私分享!
    回复 支持 反对

    使用道具 举报

  • TA的每日心情
    奋斗
    2020-3-6 09:13
  • 签到天数: 4 天

    [LV.2]偶尔看看I

    355536864 发表于 2020-3-6 09:14:32 | 显示全部楼层

    回帖奖励 +10 酷豆

    看到这部影片后百度了一下,竟然没搜到相关信息,只能下载下来看看了。谢谢分享。
    回复 支持 反对

    使用道具 举报

  • TA的每日心情
    开心
    昨天 06:57
  • 签到天数: 104 天

    [LV.6]常住居民II

    zhushuyuan 发表于 2020-3-8 08:27:03 | 显示全部楼层

    回帖奖励 +10 酷豆

    好看吗?感谢楼主的高清分享!
    回复 支持 反对

    使用道具 举报

  • TA的每日心情
    擦汗
    昨天 19:01
  • 签到天数: 312 天

    [LV.8]以坛为家I

    1260AJB 发表于 2020-3-8 21:45:35 | 显示全部楼层

    回帖奖励 +10 酷豆

    进来一看是发酷豆了!感谢露珠奖励!!!后知后觉
    回复 支持 反对

    使用道具 举报

    您需要登录后才可以回帖 登录 | 立即注册

    本版积分规则

    QQ|广告友链合作联系QQ:1374229927|小黑屋|威酷高清影视论坛

    GMT+8, 2020-5-30 04:50 , Processed in 0.016097 second(s), 14 queries , Gzip On, MemCached On.

    Powered by vkugq.net

    © 2008-2019 vkugq.net Inc.

    快速回复 返回顶部 返回列表