威酷高清论坛

 找回密码
 立即注册
查看: 767|回复: 11
收起左侧

[剧情] 白兰花的姑娘们 Girls.of.the.White.Orchid.1983.1080p.AMZN.WEBRip.DDP2.0.x264-CURLY 9.90G

[复制链接]
回帖奖励 9900 酷豆 回复本帖可获得 10 酷豆奖励! 每人限 1 次
  • TA的每日心情
    奋斗
    2020-5-24 21:44
  • 签到天数: 8 天

    [LV.3]偶尔看看II

    卡西迪奥 发表于 2020-2-23 19:55:31 | 显示全部楼层 |阅读模式


    ◎译  名 白兰花的姑娘们 / Death Ride to Osaka
    ◎片  名 Girls of the White Orchid
    ◎年  代 1983
    ◎产  地 美国
    ◎类  别 剧情 / 犯罪
    ◎语  言 英语
    ◎上映日期 1983
    ◎IMDb评分 4.9/10 from 221 users
    ◎IMDb链接 https://www.imdb.com/title/tt0085595
    ◎豆瓣评分 0/10 from 0 users
    ◎豆瓣链接 https://movie.douban.com/subject/5049917/
    ◎片  长 96分钟
    ◎导  演 Jonathan Kaplan
    ◎编  剧 Tom Allard
    ◎主  演 詹妮弗·杰森·李 Jennifer Jason Leigh


    ◎标  签 美国电影 | 美国 | 1983

    ◎简  介

      暂无相关剧情介绍
    Video
    ID : 1
    Format : AVC
    Format/Info : Advanced Video Codec
    Format profile : High@L4
    Format settings : CABAC / 4 Ref Frames
    Format settings, CABAC : Yes
    Format settings, Reference frames : 4 frames
    Codec ID : V_MPEG4/ISO/AVC
    Duration : 1 h 37 min
    Bit rate : 14.3 Mb/s
    Width : 1 920 pixels
    Height : 1 080 pixels
    Display aspect ratio : 16:9
    Frame rate mode : Constant
    Frame rate : 24.000 FPS
    Color space : YUV
    Chroma subsampling : 4:2:0
    Bit depth : 8 bits
    Scan type : Progressive
    Bits/(Pixel*Frame) : 0.286
    Stream size : 9.75 GiB (98%)
    Default : Yes
    Forced : No
    Color range : Limited
    Color primaries : BT.709
    Transfer characteristics : BT.709
    Matrix coefficients : BT.709

    Audio
    ID : 2
    Format : E-AC-3
    Format/Info : Enhanced AC-3
    Commercial name : Dolby Digital Plus
    Codec ID : A_EAC3
    Duration : 1 h 37 min
    Bit rate mode : Constant
    Bit rate : 224 kb/s
    Channel(s) : 2 channels
    Channel layout : L R
    Sampling rate : 48.0 kHz
    Frame rate : 31.250 FPS (1536 SPF)
    Compression mode : Lossy
    Stream size : 157 MiB (2%)
    Title : English
    Language : English
    Service kind : Complete Main
    Default : Yes
    Forced : No

    Text
    ID : 3
    Format : UTF-8
    Codec ID : S_TEXT/UTF8
    Codec ID/Info : UTF-8 Plain Text
    Duration : 1 h 37 min
    Bit rate : 51 b/s
    Count of elements : 1384
    Stream size : 37.2 KiB (0%)
    Title : English [SDH]
    Language : English
    Default : No
    Forced : No







    本帖子中包含更多资源

    您需要 登录 才可以下载或查看,没有帐号?立即注册

    x
    回复

    使用道具 举报

  • TA的每日心情
    开心
    9 小时前
  • 签到天数: 155 天

    [LV.7]常住居民III

    azhonglaile 发表于 2020-2-27 16:15:52 | 显示全部楼层

    回帖奖励 +10 酷豆

    影视帝国、飞鸟娱乐、伊甸园、悠悠鸟、电影天堂、圣城家园、龙网都是我甚是思念的威酷版主有精品
    回复 支持 0 反对 1

    使用道具 举报

  • TA的每日心情

    9 小时前
  • 签到天数: 429 天

    [LV.9]以坛为家II

    liyu119 发表于 2020-2-23 20:00:01 | 显示全部楼层

    回帖奖励 +10 酷豆

    谢谢迪奥大佬分享
    回复 支持 反对

    使用道具 举报

  • TA的每日心情
    开心
    2020-7-27 19:46
  • 签到天数: 44 天

    [LV.5]常住居民I

    冷蓝色眼泪 发表于 2020-2-27 16:50:04 | 显示全部楼层

    回帖奖励 +10 酷豆

    谢谢楼主的分享,也祝福楼主新年发大财,行大运
    回复 支持 反对

    使用道具 举报

  • TA的每日心情
    开心
    4 天前
  • 签到天数: 113 天

    [LV.6]常住居民II

    Fighter 发表于 2020-2-27 22:30:35 | 显示全部楼层

    回帖奖励 +10 酷豆

    这个片子还真没看过,感谢无私分享!
    回复 支持 反对

    使用道具 举报

  • TA的每日心情
    奋斗
    2020-3-6 09:13
  • 签到天数: 4 天

    [LV.2]偶尔看看I

    355536864 发表于 2020-3-6 09:14:32 | 显示全部楼层

    回帖奖励 +10 酷豆

    看到这部影片后百度了一下,竟然没搜到相关信息,只能下载下来看看了。谢谢分享。
    回复 支持 反对

    使用道具 举报

  • TA的每日心情
    开心
    9 小时前
  • 签到天数: 119 天

    [LV.6]常住居民II

    zhushuyuan 发表于 2020-3-8 08:27:03 | 显示全部楼层

    回帖奖励 +10 酷豆

    好看吗?感谢楼主的高清分享!
    回复 支持 反对

    使用道具 举报

  • TA的每日心情
    擦汗
    昨天 19:38
  • 签到天数: 364 天

    [LV.8]以坛为家I

    1260AJB 发表于 2020-3-8 21:45:35 | 显示全部楼层

    回帖奖励 +10 酷豆

    进来一看是发酷豆了!感谢露珠奖励!!!后知后觉
    回复 支持 反对

    使用道具 举报

    您需要登录后才可以回帖 登录 | 立即注册

    本版积分规则

    QQ|广告友链合作联系QQ:1374229927|小黑屋|威酷高清影视论坛

    GMT+8, 2020-8-12 18:17 , Processed in 0.017470 second(s), 12 queries , Gzip On, MemCached On.

    Powered by vkugq.net

    © 2008-2019 vkugq.net Inc.

    快速回复 返回顶部 返回列表