威酷高清论坛

 找回密码
 立即注册
查看: 7|回复: 0
收起左侧

[喜剧] 鲁邦三世:燃烧的斩铁剑 Lupin.III.Dragon.Of.Doom.1994.JAPANESE.1080p.BluRay.x264.DTS-FGT 8.31GB

[复制链接]
  • TA的每日心情
    奋斗
    2020-5-24 21:44
  • 签到天数: 8 天

    [LV.3]偶尔看看II

    卡西迪奥 发表于 2020-5-23 07:29:16 | 显示全部楼层 |阅读模式
    / P* m* V8 B; l) s: w
    & |4 v: O1 S9 H& w3 V8 L$ x
    ◎译  名 鲁邦三世:燃烧的斩铁剑 / Lupin the Third: Dragon of Doom / Rupan sansei: Moeyo zantetsuken
    $ c; e' E! n# W: N/ ^/ C& }◎片  名 ルパン三世 燃えよ斬鉄剣
    4 A# T6 K+ p# f& }◎年  代 1994
    8 }; N8 Z1 m; P5 J' A3 W◎产  地 日本
    % N7 p( g) a. M+ V) v◎类  别 喜剧 / 动作 / 动画 / 犯罪 / 冒险9 s% C  w0 f: t. C! V
    ◎语  言 英语 / 法语 / 德语 / 意大利语 / 日语
      M& T3 ]1 ]  f* H3 R◎上映日期 1994-07-29
    / s3 E8 D6 p1 [# V# k◎IMDb评分 6.9/10 from 290 users+ w* S) L; z, {3 p
    ◎IMDb链接 https://www.imdb.com/title/tt0450493
    - Y; Y4 }: ~4 n( e7 l0 E- U◎豆瓣评分 8.2/10 from 526 users
    - g( d3 N  U2 @5 a9 H- E◎豆瓣链接 https://movie.douban.com/subject/3268049/
    - R! k# @# r7 a! N0 s◎片  长 90分钟3 e/ u' J. N$ b3 T5 Z, l. V4 ]
    ◎导  演 奥胁雅晴 Okuwaki Masaharu
    . r/ g+ b0 p* N, Z◎编  剧 加藤一彦 Monkey Punch / 岸间信明 Nobuaki Kishima: V( v3 Q) I0 V2 x- d% Y9 [
    ◎主  演 山田康雄 Yasuo Yamada
    4 Q" z1 w+ J2 c" E5 O, F) J/ _      小林清志 Kiyoshi Kobayashi
    ! Z/ H+ `  r* P% J5 l  ?      井上真树夫 Makio Inoue
    : P$ ~4 o8 h) h7 d6 T      增山江威子 Eiko Masuyama4 n, B* |, C- q6 w; n$ D$ g
          纳谷悟朗 Gor? Naya- m4 ?: r! A; _! r, ^
          泷口顺平 Junpei Takiguchi
    8 G/ g0 s- a. ]      银河万丈 Banj? Ginga: w: z- _" A6 q
          松井菜樱子 Naoko Matsui
    & |* F* i1 v; g      茶风林 Chaf?rin4 e: d, x8 i1 B7 j# I  ~% V# ~: Z
          岩田安生 Yasuo Iwata. k9 w! `& d3 z0 ^! @* B
          中田和宏 Kazuhiro Nakata
    8 Z9 o* M! O9 _+ F& a6 b% a% v      定冈小百合 Sadaoka Sayuri. T9 M$ V& M: z
          冈村明美 Akemi Okamura
    2 B/ S. D2 `" c3 [      长岛雄一 Y?ichi Nagashima7 G! Z+ \; U" @! c. z, ]
          中博史 Hiroshi Naka
    , M4 ]& R* d; m) u/ V  X  }      落合弘治 Ochiai Kouji
    7 X  G2 K1 r! w& }; {/ }% s0 l9 Q7 w
    ' H3 k3 `6 {7 {# ~, P! Q; m. K
    ◎标  签 鲁邦三世 | 日本 | 动画 | 日本动画 | 剧场版 | 动漫 | 冒险 | ルパン三世# B" r' u7 M" R" t

    . e0 R! v5 Q/ t1 A◎简  介. z8 Z- @5 l; q& Y3 @$ ]; v
    $ E% d1 Y& E. w) l5 _$ ?! r
      鲁邦这次要在茫茫大海上偷取他的祖父亚森罗宾没能得手的宝物“卧龙雕”。宝物离他只有短短不到四千米。不过,是指垂直向下的深度……1 p0 A3 Y7 a4 O0 L. B" P
      本作是鲁邦三世第六部TVsp作品,于1994年7月29日放送。亦是山田康雄先生担任鲁邦声优的最后一部,他于次年3月因病去世。  D$ d) e/ n8 q7 O" g
    Video
    7 z8 z1 K! X7 U% W( u7 hID : 1; k, }9 h1 O' }) j4 O$ g
    Format : AVC. N; u9 }( S- P; @: I4 D
    Format/Info : Advanced Video Codec2 n: m. z* ^. b) C5 H' m) [$ S
    Format profile : High@L4.1" ]7 ^& X, H2 @( e, @# t. Z# c
    Format settings : CABAC / 4 Ref Frames( c; F& i7 p) d& v1 N0 W. q) q
    Format settings, CABAC : Yes, x; f# ]1 B$ v7 ?2 T0 Y& A
    Format settings, Reference frames : 4 frames, ~' ^) M) m4 w' `0 Q( A0 t
    Codec ID : V_MPEG4/ISO/AVC. x' y3 I& e# B/ o/ ]
    Duration : 1 h 30 min$ T$ W' t$ _( z2 X7 ?
    Bit rate : 11.5 Mb/s
    $ L1 j5 S4 W2 }. a" x; y$ YWidth : 1 440 pixels
    2 A! ~2 j- o. Q: j$ T, E: JHeight : 1 080 pixels
    7 O' N0 ]- E7 E% u5 |  q5 uDisplay aspect ratio : 4:3
    : }8 r! H% P' N' y% Z# UFrame rate mode : Constant
    ) \( e% _( O$ e) |$ m2 OFrame rate : 23.976 (24000/1001/189150) FPS$ K8 v1 c8 U# A/ }
    Color space : YUV4 o6 u0 i) F& M, L
    Chroma subsampling : 4:2:02 M: b/ C0 Q$ ]# [. v: A
    Bit depth : 8 bits& O6 t& _2 R1 W6 R
    Scan type : Progressive
    + W# [* ?4 i8 e7 ^0 H9 gBits/(Pixel*Frame) : 0.308
    % Z: Z* ^8 ^( L2 _8 ?7 f" L) yStream size : 7.24 GiB (87%)$ J1 _9 V: g( V( ~" H! ]
    Title : Lupin.III.Dragon.Of.Doom.1994.JAPANESE.1080p.BluRay.x264.DTS-FGT
    6 Y9 x$ N* a; u8 W% s# N/ ]+ HWriting library : x264 core 148 r2748 97eaef28 V/ I- U; p+ Y
    Encoding settings : cabac=1 / ref=4 / deblock=1:1:1 / analyse=0x3:0x113 / me=umh / subme=8 / psy=1 / psy_rd=0.50:0.00 / mixed_ref=1 / me_range=32 / chroma_me=1 / trellis=2 / 8x8dct=1 / cqm=0 / deadzone=21,11 / fast_pskip=1 / chroma_qp_offset=-2 / threads=34 / lookahead_threads=3 / sliced_threads=0 / nr=0 / decimate=1 / interlaced=0 / bluray_compat=0 / constrained_intra=0 / bframes=3 / b_pyramid=2 / b_adapt=1 / b_bias=0 / direct=3 / weightb=1 / open_gop=0 / weightp=2 / keyint=240 / keyint_min=24 / scenecut=40 / intra_refresh=0 / rc_lookahead=50 / rc=2pass / mbtree=1 / bitrate=11500 / ratetol=1.0 / qcomp=0.60 / qpmin=0 / qpmax=69 / qpstep=4 / cplxblur=20.0 / qblur=0.5 / vbv_maxrate=31250 / vbv_bufsize=31250 / nal_hrd=none / filler=0 / ip_ratio=1.40 / aq=3:0.601 c- T1 m% P4 L! q. r; i
    Default : Yes
    1 _$ u6 U! B/ g+ e% i3 qForced : No8 z) g% d- R5 I) }, h( o. |; |

    ; |0 D' j; x4 f- V8 [4 kAudio #1. [  `8 p# j1 I; K' ~
    ID : 22 s* E8 R0 E+ o' y- i6 w" Q( \
    Format : DTS
    3 s5 s# n, m. I. X/ D' q8 ^Format/Info : Digital Theater Systems7 y+ l* a9 D) Z- ]4 P4 b
    Codec ID : A_DTS
    . Y4 `! O. `$ C9 j( D# f& \+ B; _Duration : 1 h 30 min
    / M# U) @- z9 W7 ]* s8 ]# oBit rate mode : Constant
    / c. L; ?. j/ T- S, M; K5 JBit rate : 1 509 kb/s+ H5 s+ D4 `& M+ S. E
    Channel(s) : 2 channels. J, _  L( S' k9 x
    Channel layout : L R
    - {5 y5 w- `* Z6 OSampling rate : 48.0 kHz# ^6 G: l8 G$ p
    Frame rate : 93.750 FPS (512 SPF)  x2 s9 D6 F; [$ H+ J) K
    Bit depth : 16 bits" N% e8 y6 ~; |8 v# @) c- [
    Compression mode : Lossy: H$ v4 ^# I. [; y* S5 s
    Stream size : 973 MiB (11%)
    + c* \5 M% [  h; UTitle : Lupin.III.Dragon.Of.Doom.1994.JAPANESE.1080p.BluRay.x264.DTS-FGT
    : [# r- H7 d7 @( Q7 ]Language : Japanese
    3 h$ e; @; t& ?Default : Yes$ q) S, p2 s, m+ }3 L7 Q) Q
    Forced : No
    ! a  g# w7 ^" ^8 {4 G4 u
    2 D: C# X# O6 t4 e, iAudio #2
      z8 I* E& c9 v% J& b1 R% LID : 3* \! w9 y5 u' D6 a, i* q
    Format : AC-3
    # ~) d7 \5 }( R. hFormat/Info : Audio Coding 3
    : W2 a, v8 y8 P: R4 r5 n. C9 ECommercial name : Dolby Digital
    * d4 ^3 |$ n! U, `! d) L+ YCodec ID : A_AC3% R+ [7 _% U  @. L6 v! A
    Duration : 1 h 30 min
    & W1 G) _. k5 |( o2 ^Bit rate mode : Constant
    5 i9 H5 H- n* _( xBit rate : 192 kb/s2 ], D: [7 E0 ^# h( Y; ~
    Channel(s) : 2 channels9 D. i3 @4 A. j7 m% L
    Channel layout : L R. ]6 d+ ?5 `" T$ Q2 c- H! N
    Sampling rate : 48.0 kHz- ~/ E/ N: r/ z* T* C4 S! Z# x5 _0 G
    Frame rate : 31.250 FPS (1536 SPF)
    " g! i. h' \, fBit depth : 16 bits
    " d/ O2 }7 j2 t. S+ ECompression mode : Lossy; s  S& w+ [( Y/ }% {1 T1 p1 n$ f
    Stream size : 124 MiB (1%)7 [% b5 W; ~3 g7 r& K5 s$ x7 Y: X+ ~
    Title : Lupin.III.Dragon.Of.Doom.1994.JAPANESE.1080p.BluRay.x264.DTS-FGT
    0 I& N/ y+ B/ q7 w! i: BLanguage : English. m4 p5 E$ V9 }4 |& z
    Service kind : Complete Main
    % j9 {( ^0 p3 m9 GDefault : No0 h" i  j# B" T% v. @
    Forced : No
    : x# g6 [6 @5 d& Q. P$ L2 c$ n
    & }" o( c  M0 s  V* }2 f+ mText2 e  L% v, s7 A" c
    ID : 4
    ! y* I5 W9 A" @0 c" W( q; a% SFormat : UTF-8! _+ H6 `; b8 j7 L
    Codec ID : S_TEXT/UTF8
    / w/ D3 K/ k* U' j: eCodec ID/Info : UTF-8 Plain Text
    ! d+ k* e! p: {. G- }( rDuration : 1 h 29 min4 O% P! q7 a# D. w- e7 F
    Bit rate : 42 b/s
    4 Y+ e4 Y( d9 g/ Z  ], ACount of elements : 949
    + S, o) ^& z" d; tStream size : 28.2 KiB (0%)
    ( a$ O; L9 }7 E- Y& t+ I  `) i; M7 y, DLanguage : English) m$ x0 P. Q0 e
    Default : Yes& N# q0 j2 M/ _! M
    Forced : No. t7 ~& K+ @4 s0 {8 V

    5 V  z; N/ j# kMenu$ ~; m6 `0 K) z! @
    00:00:00.000 : en:Chapter 01- C" p" F9 \5 n& \- w
    00:03:59.364 : en:Chapter 02
    7 X( l+ k" U% t4 F- u00:10:13.653 : en:Chapter 03  P# Q& }( w; E/ W1 ~, h8 V
    00:17:04.019 : en:Chapter 04
    7 }! O0 U4 y8 L3 @: ~2 ?3 V, A00:23:09.384 : en:Chapter 05
    , [0 `, Z5 R9 h; L00:38:20.380 : en:Chapter 061 f# H# _4 J9 w
    00:50:43.039 : en:Chapter 070 c' E5 }5 y# }- M
    00:56:43.650 : en:Chapter 08
    4 Y7 a. e; ?+ l, {0 ?: c; j: e$ {01:05:40.061 : en:Chapter 09
    : y3 c8 m. U. \01:11:27.908 : en:Chapter 10" ^: n4 d' V  y
    01:13:29.822 : en:Chapter 11
    : T% G( S5 a- N( L6 \01:22:36.868 : en:Chapter 128 d# u  d2 U# l1 }7 j$ Q
    01:28:00.774 : en:Chapter 13

    ( w: ~8 \5 g1 V6 O# t) R
    - [1 g( `; F6 W0 E2 E$ |/ g2 ^8 K' _9 S
    8 ]3 a: ?  w- J) K- m$ `& q  R

    : \3 f& C4 I" [& K2 O
    " J. I& `5 I5 Z& g
    ! u9 V$ Y7 U6 V* \

    本帖子中包含更多资源

    您需要 登录 才可以下载或查看,没有帐号?立即注册

    x
    回复

    使用道具 举报

    您需要登录后才可以回帖 登录 | 立即注册

    本版积分规则

    QQ|广告友链合作联系QQ:1374229927|小黑屋|威酷高清影视论坛

    GMT+8, 2020-6-3 23:25 , Processed in 0.019326 second(s), 13 queries , Gzip On, MemCached On.

    Powered by vkugq.net

    © 2008-2019 vkugq.net Inc.

    快速回复 返回顶部 返回列表