威酷高清论坛

 找回密码
 立即注册
查看: 7|回复: 0
收起左侧

[剧情] 废墟中的爱情 Love.Among.the.Ruins.1975.1080p.BluRay.x264.DTS-FGT 9.34GB

[复制链接]
  • TA的每日心情
    奋斗
    2020-5-24 21:44
  • 签到天数: 8 天

    [LV.3]偶尔看看II

    卡西迪奥 发表于 2020-5-23 07:39:41 | 显示全部楼层 |阅读模式

    $ ~$ m8 `- K1 y; X1 P- Q, U; u, e/ y, ~. J! C/ h) t8 f( t
    ◎译  名 废墟中的爱情. O7 @. w) ?" e3 @0 p0 t" X' O
    ◎片  名 Love Among the Ruins5 @' E4 B$ \" N. s2 Q" n! A
    ◎年  代 1975  z& y% V0 Z: ^/ ^7 S, P1 R* d
    ◎产  地 英国
    4 r% j$ T- {: D6 }◎类  别 剧情 / 喜剧 / 爱情, o0 n& ]  M0 C- r; s9 h
    ◎语  言 英语
    0 e2 q1 \% p2 z; \◎上映日期 1975-03-06
    7 Y. w, e: T" a* t; X: h! }◎IMDb评分 8.0/10 from 817 users
    ! l$ X# O2 n# P& c◎IMDb链接 https://www.imdb.com/title/tt0073310! S. d, E8 `" n) _8 H( ~8 R
    ◎豆瓣评分 0/10 from 0 users
    , @, u& D& H: y◎豆瓣链接 https://movie.douban.com/subject/1306480/
    & j9 g) _- S2 |1 m9 D◎片  长 100分钟* a/ P& b/ K; ?3 O/ U
    ◎导  演 George Cukor
    , c# E) c1 c) Y# {4 f' a, }◎编  剧 James Costigan, b" t% X1 r1 p% }; a$ r
    ◎主  演 Katharine Hepburn
    . j  ]$ F  T- A0 I      Laurence Olivier
    - p1 K) }: Q- K  x# t+ j      Colin Blakely
      |; c$ a; L4 t8 J
    : {; i" J7 x2 M, S6 {  K7 I$ e" v
    ◎标  签 凯瑟琳·赫本 | Lawrence_Olivier | 1970s | 英国 | Katharine_Hepburn | 英国电影 | George_Cukor | 英國8 U- b& D- S' t0 ^8 e: g2 s
    $ b" S# X5 U( }9 |
    ◎简  介2 }* {: h" W% Q

    8 K+ b) C* g3 @2 E. R& D) e  步入晚年的女演员被起诉,原因是她毁弃婚约,而她雇用来为她打官司的律师居然是她的旧情人,可她却不知道律师仍然爱着她。此刻他们两都意识到,赢得官司保卫自己财产的唯一方法是自毁名声,他们两该何去何从呢?
    1 P2 B0 @$ r7 Y: X7 I5 Y. N5 {
    Video
    2 |* Q1 C) l$ E1 M* R7 |ID : 1
    1 m+ f. h) W  Z" T% g* J+ zFormat : AVC6 K, x1 ?9 v, a% c' C' O! y4 h
    Format/Info : Advanced Video Codec
    , \1 C: L; X8 JFormat profile : High@L4.1# e, Y4 D1 P" E2 K+ L+ O
    Format settings : CABAC / 4 Ref Frames
    ; N# G* H- h. s8 @. ^! o7 O. aFormat settings, CABAC : Yes
    : Z  |* Y) P5 b- K, cFormat settings, Reference frames : 4 frames
    1 U- s9 c& m/ o$ N& tCodec ID : V_MPEG4/ISO/AVC' a; k4 j5 H, v3 z/ _" Z+ V
    Duration : 1 h 42 min
    / f7 c1 e. u5 e( VBit rate : 11.5 Mb/s
    8 _3 h" o3 G" b3 z6 a, d4 S2 O  AWidth : 1 800 pixels
    / b5 o* |2 \% N  ^Height : 1 080 pixels' r5 A& x- w) V
    Display aspect ratio : 5:3
    . p2 r8 k+ z3 c5 aFrame rate mode : Constant
    ' R; A, r! }, t; uFrame rate : 23.976 (24000/1001/189150) FPS; S. b5 F, z4 L5 Y) h2 q' C
    Color space : YUV
    3 h; [+ O( o/ Q( f/ bChroma subsampling : 4:2:00 ~, x6 d/ t* Q1 @  R( z2 V
    Bit depth : 8 bits
    - ]: Q4 M" m7 a6 k  i& ?Scan type : Progressive
    2 Z0 ~7 a$ E+ sBits/(Pixel*Frame) : 0.247: k8 D1 b# E  W% R4 h' A5 X
    Stream size : 8.26 GiB (88%)
    5 B0 y: V, A9 @* {Title : Love.Among.the.Ruins.1975.1080p.BluRay.x264.DTS-FGT
    8 c8 u) n6 ^3 D8 C* XWriting library : x264 core 148 r2748 97eaef2
    . w! ~" u& C5 w. d- zEncoding settings : cabac=1 / ref=4 / deblock=1:-2:-2 / analyse=0x3:0x113 / me=umh / subme=9 / psy=1 / psy_rd=1.00:0.15 / mixed_ref=1 / me_range=16 / chroma_me=1 / trellis=2 / 8x8dct=1 / cqm=0 / deadzone=21,11 / fast_pskip=1 / chroma_qp_offset=-3 / threads=24 / lookahead_threads=3 / sliced_threads=0 / nr=0 / decimate=1 / interlaced=0 / bluray_compat=0 / constrained_intra=0 / bframes=3 / b_pyramid=2 / b_adapt=1 / b_bias=0 / direct=3 / weightb=1 / open_gop=0 / weightp=2 / keyint=250 / keyint_min=25 / scenecut=40 / intra_refresh=0 / rc_lookahead=50 / rc=2pass / mbtree=1 / bitrate=11500 / ratetol=1.0 / qcomp=0.60 / qpmin=0 / qpmax=69 / qpstep=4 / cplxblur=20.0 / qblur=0.5 / vbv_maxrate=31250 / vbv_bufsize=31250 / nal_hrd=none / filler=0 / ip_ratio=1.40 / aq=1:1.00( U7 g# T! G1 G$ r0 X# x/ e6 U; p% l
    Language : English/ b3 g; a# p9 q* T
    Default : Yes
    2 O% b  C& y9 z& e5 w; PForced : No
    9 l0 H6 J! X0 g; k4 T2 G  r. m# G( |/ p: q3 \: a
    Audio
    & s  Z& }& d9 B. N8 D) P1 n# sID : 2/ `6 o: C5 b! e" L
    Format : DTS- u. X" t# s( {
    Format/Info : Digital Theater Systems8 z3 B3 I! ^& F5 A& c
    Codec ID : A_DTS& ?0 E% A' K0 C* G8 m8 J
    Duration : 1 h 42 min
    / X1 S* l& o/ T, ABit rate mode : Constant
    * p& Y3 c4 m0 e9 V- I. k. y+ o" tBit rate : 1 509 kb/s" O( k4 f8 v! c7 g' A. E
    Channel(s) : 2 channels
    8 I4 N1 i4 {: _+ w0 U3 {4 O0 rChannel layout : L R: u( [/ c+ L, Q7 u: T3 ?$ {. r1 f
    Sampling rate : 48.0 kHz
    9 ^* H; _) o' F  `Frame rate : 93.750 FPS (512 SPF)
    $ q; V9 }5 z; E+ O0 cBit depth : 16 bits
    7 X! X# z& Q3 [7 m3 h. X( C) ACompression mode : Lossy
    7 E" H! T* d8 S- R$ R* RStream size : 1.08 GiB (12%)% {1 n/ p( e+ ~  @$ t
    Title : Love.Among.the.Ruins.1975.1080p.BluRay.x264.DTS-FGT
    $ F+ R, ~# m! X# t7 zLanguage : English9 B0 ?6 C1 |; V- O3 U" W+ t
    Default : Yes
    % t! _. p( M0 [% ~# ^" b: Y% A7 K& fForced : No& P% f) K+ D0 A

    / n& _1 p6 A+ G6 X: V/ Z8 ], K5 TText' c" x8 S7 q/ D# P$ t+ W
    ID : 3& L5 R+ @1 P) Y" R! H, X' h
    Format : UTF-8: J/ z- Y/ \- o: P) k3 ^  k1 E
    Codec ID : S_TEXT/UTF8# ^8 R/ d/ X9 ~9 Q/ \
    Codec ID/Info : UTF-8 Plain Text
    5 S; K- \3 Q0 N+ X9 V! xDuration : 1 h 38 min; \, o7 Z  m4 h
    Bit rate : 89 b/s5 n( i' @& O+ {, {& Y) C1 b
    Count of elements : 17028 k; T$ M# J; [9 {& a
    Stream size : 65.1 KiB (0%). q) Z4 K5 p5 Y' |. [# ^, z6 F
    Language : English
    7 f% ^" o4 A, E0 sDefault : Yes4 G2 d7 Q) r$ {- m. m, N" z$ j; G
    Forced : No5 e, [& z- J5 |& f' k

    5 F$ U6 X6 G' m; f- W6 ^8 tMenu
    . F  U$ w; i. b00:00:00.000 : en:Chapter 018 x4 c: C1 Q' S- d% _. V
    00:14:24.666 : en:Chapter 021 W3 {+ r/ k+ I  c& s$ c
    00:29:34.659 : en:Chapter 03( M% M* B# w" O0 b' t' d$ A
    00:44:37.144 : en:Chapter 04$ ?$ p; w. k+ T2 [. f
    00:56:51.669 : en:Chapter 052 O+ ]7 k0 N& a; s
    01:11:57.366 : en:Chapter 068 q% w0 S/ ~5 t2 V) U/ \9 s
    01:23:29.140 : en:Chapter 07
    " L) Z' W! A. t01:32:08.743 : en:Chapter 08
    , N4 {9 `: O! @" Z9 ^) O: g
    2 P4 C+ S3 {; d! o! Y9 R4 s0 R
    * `$ h9 W) e" R4 e

    4 A! U1 ?3 {' P0 f! N4 k9 @+ k( v6 u/ v; h- m. V9 k

    本帖子中包含更多资源

    您需要 登录 才可以下载或查看,没有帐号?立即注册

    x
    回复

    使用道具 举报

    您需要登录后才可以回帖 登录 | 立即注册

    本版积分规则

    QQ|广告友链合作联系QQ:1374229927|小黑屋|威酷高清影视论坛

    GMT+8, 2020-6-4 00:32 , Processed in 0.016379 second(s), 12 queries , Gzip On, MemCached On.

    Powered by vkugq.net

    © 2008-2019 vkugq.net Inc.

    快速回复 返回顶部 返回列表