威酷高清论坛

 找回密码
 立即注册
查看: 9|回复: 0
收起左侧

[惊悚] 开膛手杰克 Jack.The.Ripper.1976.GERMAN.1080p.BluRay.x264.DTS-FGT 9.33GB

[复制链接]
  • TA的每日心情
    奋斗
    6 天前
  • 签到天数: 8 天

    [LV.3]偶尔看看II


    8 d* R0 T; O* ?) K% j' D
    . h& [7 p, W! K0 V◎译  名 开膛手杰克
    1 Y. q. V3 W3 ]' F0 A# i◎片  名 Jack the Ripper* G7 k0 b9 |$ {( U
    ◎年  代 1976
    . `& ^4 o+ }8 r- w0 ^2 q% \/ T& [◎产  地 瑞士 / 西德+ G- [  V1 V9 c) O5 W- ]
    ◎类  别 惊悚 / 恐怖 / 犯罪
    ; W' _: m" p# o( r) ~◎语  言 德语
      q1 c0 r6 N3 f) T% J1 L, H◎上映日期 1976-09-23
    & I4 r# ?% f, m) ?: X◎IMDb评分 5.5/10 from 1441 users9 H8 @$ {+ i8 q# {0 |: ]
    ◎IMDb链接 https://www.imdb.com/title/tt0074408
    ; x7 Y6 D3 q& M◎豆瓣评分 6.5/10 from 509 users# _" X6 ?, ]! z1 }) @" @5 u: t
    ◎豆瓣链接 https://movie.douban.com/subject/1303673/
    * ~4 H- \8 B% A, b◎片  长 92 分钟
    ) w' }+ q$ W. U8 Q/ L◎导  演 Jesus Franco( ~& ~* J+ ]7 I. A( L9 S
    ◎编  剧 Jesus Franco
    ! [! Z* U7 i/ F+ {' c' B* H( w8 V◎主  演 Klaus Kinski
    ) @/ p; x8 O* b8 U      Josephine Chaplin$ b. Z9 s) H8 m, S# {: l+ \3 ~
          Lina Romay
    8 d8 K& A3 Z0 O9 g4 T      Andreas Mannkopff( U; p* {* Q1 Q4 T$ m5 w5 N" x
          Herbert Fux* ]# [4 n" {1 ?- R. A% t
    + p1 Y1 {, D* Q2 ]# |( l0 l; n% U$ c4 F
    ) H3 O5 z# f9 o9 [( F! f, L
    ◎标  签 恐怖 | 开膛手杰克 | 犯罪 | 犯罪心理 | 惊悚 | 瑞士 | 1976 | JesusFranco
    " D; @8 i2 \& Y/ p% ?" @8 O
    2 O, _* G! F! ?6 b3 ?& m4 e: w; [◎简  介
    9 o* R' y& u4 g! M. ]: e+ s% z# g" [2 Y3 Z( _' L
      一部关于19世纪伦敦臭名昭著的开膛手杰克的电影,这个版本换成了一个擅长拍摄恐怖片的导演,晚上出行动专门残杀害妓女,也假扮妓女来诱骗他,但另结局却出人意料之中。
    5 e+ P: D* S2 }3 |' `
    Video
    : l* I- ]: l8 l7 O% F/ ]ID : 1
    ( Z5 D7 M6 i7 A; s, Z' RFormat : AVC
    6 W6 k% S! p" _/ C1 u! P5 Q4 {9 {, pFormat/Info : Advanced Video Codec* L6 v! {$ R3 K4 n& G- J, |5 `0 r
    Format profile : High@L4.1
    0 r. d7 `7 m* aFormat settings : CABAC / 4 Ref Frames, Y$ N1 Q" @: Z2 D7 [1 F9 V8 R, X! ~
    Format settings, CABAC : Yes
    , J) ?/ Q+ A8 g4 @" s  X% z' PFormat settings, Reference frames : 4 frames
    * }0 U5 M( E# o6 f  M1 y( c& QCodec ID : V_MPEG4/ISO/AVC
    3 o6 x' p9 S0 \Duration : 1 h 31 min1 R2 \# m; D+ ~3 ~" E8 A
    Bit rate : 11.5 Mb/s+ f$ f7 X" |* N2 t& X" B3 @& M
    Width : 1 920 pixels
    " K' q8 I3 M' f+ {6 I: F* }Height : 1 080 pixels
    2 x+ ?) O% b+ B, `, iDisplay aspect ratio : 16:9
    & \, e3 E) h: p/ u6 {( F" dFrame rate mode : Constant
    ( ^8 k3 v- B4 ^- Z; }& tFrame rate : 24.000 FPS
    ( ^0 M1 Q  W. s5 KColor space : YUV
    * b/ n1 M2 |" Z4 O- ~# `9 PChroma subsampling : 4:2:0" S( F2 ]7 u9 d
    Bit depth : 8 bits
    - [% _+ N' q2 C$ HScan type : Progressive3 U; i1 h3 p0 J5 d, z
    Bits/(Pixel*Frame) : 0.231' T# x2 N$ s0 A$ k# t% E
    Stream size : 7.39 GiB (79%); F- e# o1 Q$ b- H
    Title : Jack.The.Ripper.1976.GERMAN.1080p.BluRay.x264.DTS-FGT. T. V! x* |! o  E5 f; \0 n
    Writing library : x264 core 148 r2795M aaa9aa8
    % m8 u! H; q/ m+ ^& D, A) [Encoding settings : cabac=1 / ref=4 / deblock=1:-2:-2 / analyse=0x3:0x113 / me=umh / subme=9 / psy=1 / psy_rd=1.00:0.15 / mixed_ref=1 / me_range=16 / chroma_me=1 / trellis=2 / 8x8dct=1 / cqm=0 / deadzone=21,11 / fast_pskip=1 / chroma_qp_offset=-3 / threads=24 / lookahead_threads=3 / sliced_threads=0 / nr=0 / decimate=1 / interlaced=0 / bluray_compat=0 / constrained_intra=0 / bframes=3 / b_pyramid=2 / b_adapt=1 / b_bias=0 / direct=3 / weightb=1 / open_gop=0 / weightp=2 / keyint=250 / keyint_min=25 / scenecut=40 / intra_refresh=0 / rc_lookahead=50 / rc=2pass / mbtree=1 / bitrate=11500 / ratetol=1.0 / qcomp=0.60 / qpmin=0 / qpmax=69 / qpstep=4 / cplxblur=20.0 / qblur=0.5 / vbv_maxrate=31250 / vbv_bufsize=31250 / nal_hrd=none / filler=0 / ip_ratio=1.40 / aq=1:1.00% B0 V" h; u/ t5 N
    Default : Yes- l. U" S. [, R' W* \
    Forced : No
    ' d1 @5 u! J9 b9 t1 V- c
    - {5 k- C2 r8 S0 A2 R8 S3 dAudio #12 f. a/ `9 p  _8 Q. o
    ID : 2/ R4 X# m+ M' N8 W& h* ?
    Format : DTS
    5 d  ?* r1 p0 OFormat/Info : Digital Theater Systems
    4 v% Y- m* D+ w" p# V. b! w4 x0 zCodec ID : A_DTS; _5 h: f" a, H6 q7 v
    Duration : 1 h 31 min
    . A( g! \& r  S+ N) T5 XBit rate mode : Constant
    " E; B. V! `: ], `' g+ u) zBit rate : 1 509 kb/s
    / h& h  g) w1 J/ n* ^# S! A0 zChannel(s) : 6 channels  X7 {$ }" y9 ~
    Channel layout : C L R Ls Rs LFE
    ) K6 r1 A% e. n9 S# ASampling rate : 48.0 kHz) Q- f. a9 k' q0 q
    Frame rate : 93.750 FPS (512 SPF)( [( o; i5 D* n+ _
    Bit depth : 24 bits
    9 h2 v  U  ~3 `; SCompression mode : Lossy* _* e% k9 }" _+ r( ~; L
    Stream size : 992 MiB (10%)4 |  P* ]8 D% h$ Y$ a$ H5 |
    Title : Jack.The.Ripper.1976.GERMAN.1080p.BluRay.x264.DTS-FGT
    ' ?$ b9 g) i( a: |  XLanguage : German
    % d( u4 j( n% k+ B& Q/ J. M+ CDefault : Yes
    ' F" W! R4 r) M1 h' jForced : No( s6 ~0 L5 k7 f5 y% U
    - m4 W1 c: I# f# L- f
    Audio #20 ?- Z, K8 R" I+ ]% t
    ID : 3  X; V1 Q# O. N) ?8 C5 ]* B
    Format : DTS1 Z0 ~6 Y! U; f( c& x% A
    Format/Info : Digital Theater Systems
    . v8 y3 C& i% d' a. w& sCodec ID : A_DTS. {: C$ Q% \7 v6 ?
    Duration : 1 h 31 min: H- U7 m) O! X
    Bit rate mode : Constant
      @# J6 B9 `( t& A- T9 n' dBit rate : 1 509 kb/s+ y% f1 ?5 t# o2 v# z
    Channel(s) : 6 channels
    7 i% @% @4 m" C- N4 s. JChannel layout : C L R Ls Rs LFE
    0 a  q1 O1 z% m) K7 E. X  C5 FSampling rate : 48.0 kHz
    ) v- L  W8 ~1 }0 ^# F/ ~# V3 \6 K1 }Frame rate : 93.750 FPS (512 SPF)
    1 v" w- `$ R7 r+ f& S; U8 nBit depth : 24 bits5 P9 @" z& d3 ^9 u2 I" M2 J
    Compression mode : Lossy
    8 J: [" _2 h3 B1 I  _0 fStream size : 992 MiB (10%)
    & k0 V3 B. u( }- L- H2 eTitle : Jack.The.Ripper.1976.GERMAN.1080p.BluRay.x264.DTS-FGT
    . `+ `1 d, a. k' H1 _! i2 g* LLanguage : English$ E8 @, I, w& ^# y
    Default : No
    : X: J9 e7 X8 W2 Y. d# ?Forced : No- j4 I: x6 V8 r" H+ C, V. K
    ' y, ^# e" T: `4 e( `: @+ `) ^
    Text- k4 G3 ~3 O0 T( ]5 L: _% [
    ID : 4+ I% a4 U5 V5 }
    Format : UTF-8# _, r5 l3 H( Q# R( w/ g! L
    Codec ID : S_TEXT/UTF8! o0 _3 ]9 Y- J& c0 `/ a, w$ @
    Codec ID/Info : UTF-8 Plain Text
    ( ^2 \4 T" j) V' KDuration : 1 h 31 min5 p% Q+ O- d! M+ O
    Bit rate : 44 b/s
    7 u: ?$ Z  W0 N% }2 u" bCount of elements : 729
    0 J  @8 H/ l2 G2 I  |% w2 W1 f/ f4 WStream size : 29.7 KiB (0%)
    $ P# h+ X3 k7 s( c2 m* T$ s7 ALanguage : English3 d/ V: y7 D8 }" i1 c) y+ W9 ?# B
    Default : Yes! T  }: B. b4 W" `
    Forced : No: @; s8 w- l: ?" v( v7 C* M

      p2 y; F0 ]. z# o" z7 ^Menu
    * x# W2 j0 q* m3 ^8 D00:00:00.000 : en:Chapter 18 }/ ~% }2 N6 g: A/ Z! q+ q- x2 j
    00:04:52.000 : en:Chapter 22 N+ K4 H" Y; [5 D% \8 s
    00:05:39.000 : en:Chapter 36 M& ~' F4 v$ K" f/ d1 X6 w
    00:07:56.583 : en:Chapter 4
    9 B3 r7 B. A, D00:12:45.000 : en:Chapter 5
    2 I6 w' D# B- p0 c2 |8 M/ H, ^00:17:01.958 : en:Chapter 6
    ! t. Y7 j7 W: \# n00:17:44.750 : en:Chapter 7
    ; g! C% k1 W' v* h' U00:25:35.417 : en:Chapter 81 l9 L! e; K; T+ z- I( _/ n% d
    00:35:20.000 : en:Chapter 9
    / }% e+ U# a$ J. I7 C& S5 x2 E) t00:39:37.417 : en:Chapter 10% V: h4 \3 C8 M2 y
    00:43:50.500 : en:Chapter 118 V8 `$ j; I9 E$ M6 N
    00:51:54.000 : en:Chapter 12" J/ E9 _, j! `. c. j- w# a8 ~
    00:53:25.875 : en:Chapter 13& q$ [( P) x0 h2 h; m9 u1 u1 s; F
    00:55:47.000 : en:Chapter 14) n9 Q! a( U  m7 q
    00:59:01.750 : en:Chapter 15
      T( c- \, S7 b) g8 y, D01:05:32.417 : en:Chapter 16
    $ w- ~: j2 i( |7 Q7 m01:08:52.667 : en:Chapter 179 |, q0 [  b$ I5 M! ~. `9 N7 Z
    01:14:18.875 : en:Chapter 18
    ) l0 k& z( w% |! x01:23:38.667 : en:Chapter 19
    8 @. K( T  U- \( `01:29:41.167 : en:Chapter 20

    4 s1 Y% x1 M; c" T5 y: B+ K! [2 ~
    ; G$ t: _& _( X. f7 a* Z7 M6 l
    / E. R5 d7 Z+ X0 t0 G5 a2 }2 F3 ]1 O' g: {# J! y

    " ^0 d# k$ T8 z3 L  |$ Y* D" b/ E- v) o

    本帖子中包含更多资源

    您需要 登录 才可以下载或查看,没有帐号?立即注册

    x
    回复

    使用道具 举报

    您需要登录后才可以回帖 登录 | 立即注册

    本版积分规则

    QQ|广告友链合作联系QQ:1374229927|小黑屋|威酷高清影视论坛

    GMT+8, 2020-5-30 02:55 , Processed in 0.016422 second(s), 13 queries , Gzip On, MemCached On.

    Powered by vkugq.net

    © 2008-2019 vkugq.net Inc.

    快速回复 返回顶部 返回列表