威酷高清论坛

 找回密码
 立即注册
查看: 6|回复: 0
收起左侧

[剧情] 在我父亲的洞穴里 In.My.Fathers.Den.2004.1080p.BluRay.x264.DTS-FGT 10.90GB

[复制链接]
  • TA的每日心情
    奋斗
    2020-5-24 21:44
  • 签到天数: 8 天

    [LV.3]偶尔看看II

    卡西迪奥 发表于 2020-5-23 07:41:29 | 显示全部楼层 |阅读模式

    3 S/ u. u9 e5 b4 e' D: B( ?) j3 q- \- A  V7 }3 C; i4 b
    ◎译  名 在我父亲的洞穴里 / Um Refúgio no Passado( ]4 c; X/ [9 ?
    ◎片  名 In My Father's Den: f! ?6 @  N" P9 R$ x2 g) j  ^' Q
    ◎年  代 2004- ^. r" i+ v8 B6 S2 v
    ◎产  地 新西兰 / 英国# t$ F& C: Q2 Q
    ◎类  别 剧情 / 悬疑 / 惊悚" w/ d  Y5 D: }# @8 e/ j
    ◎语  言 英语) s! S3 O  a- u# _0 V/ E
    ◎上映日期 2004-10-07(新西兰); D; x! y; n5 h. D0 M
    ◎IMDb评分 7.5/10 from 7189 users
    ' \# l+ h, j5 [' H7 w) _◎IMDb链接 https://www.imdb.com/title/tt0385017& K' b5 s/ f# q- Q( D% N
    ◎豆瓣评分 7.7/10 from 1787 users' K/ w+ O% |1 }6 `
    ◎豆瓣链接 https://movie.douban.com/subject/1309127/, l0 Z$ A; D% I: _. e* L
    ◎片  长 127分钟# z" M& r( p& ^4 W! T9 U
    ◎导  演 布拉德·迈克吉恩 Brad McGann
    - u4 `- x1 y3 L  g◎编  剧 布拉德·迈克吉恩 Brad McGann / Maurice Gee
    4 q7 Y, G2 j  W0 U/ `◎主  演 马修·麦克费登 Matthew Macfadyen
    ( v$ {2 M; ~9 ~5 h+ b) _7 ]      艾米丽·巴克雷 Emily Barclay' X1 I6 y- r/ V1 Y) [
          米兰达·奥图 Miranda Otto1 I8 D0 _/ l. m+ f3 g& O0 I
          Colin Moy
    1 g, Y0 L3 T  z( H0 g5 n; l      Jimmy Keen
      q$ F" H6 g0 g      Jodie Rimmer9 c) ~+ n9 {' o: L. }3 y1 r
    % v) C/ \) T1 n0 ^/ t% X! _

    0 b3 k) _8 ^6 }$ V$ W- u4 Y◎标  签 新西兰 | 悬疑 | 剧情 | MatthewMacFadyen | 英国 | 家庭 | 新西兰电影 | 成长
    ! g7 v" e' S* n- C' e
      f/ k( b) d6 W* i, I+ S$ A9 x◎简  介
    . O( Y* P/ m2 C5 t9 M% R. ], I5 h# J' z0 D
      这是鲍尔(马修·麦克费登 Matthew Macfadyen 饰)这十几年来第一次踏上故乡的土地,他来这里不为了别的,只为了参加父亲的葬礼。作为鲍尔的兄长,安德鲁(科林·莫伊 Colin Moy 饰)对于兄弟的来访却并不高兴,时间使人们变得陌生,迥异的个性又为他们制造了矛盾。在安德鲁的强烈要求下,鲍尔来到了父亲曾经呆过的小屋,清算父亲留下的遗产,没想到,在小屋里,鲍尔遇见了一位名叫西莉亚(艾米丽·巴克雷 Emily Barclay 饰)的少女。
    ; @) k) }9 j! y% b  受朋友所托,鲍尔担任了写作课的代课老师,在班上,他再一次的看到了西莉亚的身影。令鲍尔吃惊的是,西莉亚竟然是他和前女友的爱情结晶而他对此一无所知。在血缘的影响下,鲍尔对西莉亚格外的照顾和关心,不遗余力的支持着她追求自己的梦想,这样的状态一直持续到了西莉亚突然失踪的那一天,同时,一个不为人知的秘密就此揭开。! }  D! F( \" x' ~6 ?4 W8 x. k
    % R* f+ d6 n7 s- {
    ◎获奖情况' `5 a8 U2 ?  \; e8 {
    ! o4 y& O% l, p; n! {- v' Z
      第8届上海国际电影节(2005)
    3 H& C3 K* G+ J' M  M2 }  金爵奖 最佳影片(提名) 布拉德·迈克吉恩. d2 G7 C' g. u+ E8 {1 n
      金爵奖 最佳摄影 斯图尔特·瑞伯
    ; o' {; Y7 F1 T$ x( C* K& w
    Video; ]1 [  z- H: c
    ID : 1) I5 |. X3 J; l8 @3 F$ c
    Format : AVC
    9 p, ~4 f" ]1 M* i% x& T6 Z2 y( dFormat/Info : Advanced Video Codec( T) V% \7 I8 P% n
    Format profile : High@L4.1
    4 g' R' d' O& f9 M* u- U# ~0 cFormat settings : CABAC / 4 Ref Frames$ s! k- D3 E% m1 Q, F
    Format settings, CABAC : Yes' x" ?& [, b4 h& r7 U/ _
    Format settings, Reference frames : 4 frames
    1 R6 o8 w; ~1 K2 qCodec ID : V_MPEG4/ISO/AVC. J4 V0 M  \. _! v0 q6 n0 S
    Duration : 2 h 7 min# b* p3 Y& |. M3 Z
    Bit rate : 11.5 Mb/s
    0 u3 x( v* E* ^. KWidth : 1 916 pixels
    + @4 H* G+ f  _9 A! o, o0 |; Z% j8 @Height : 816 pixels1 O2 M) A. m3 Q9 Q6 v0 l( f& J
    Display aspect ratio : 2.35:1- J# ^1 K1 T' ?0 i2 Z
    Frame rate mode : Constant
    - P2 e; p$ `% t4 u. I: w& k  M, [7 DFrame rate : 24.000 FPS2 {- Y2 [" K  P% T( y# Z
    Color space : YUV
    . P3 j9 m% L/ N: ?9 M$ \5 m" fChroma subsampling : 4:2:0
    ' {  D% o# |6 G7 f: m! QBit depth : 8 bits# r) t: J/ t7 [9 R7 m0 _, ^4 X" P- E
    Scan type : Progressive
    ; [4 b: S4 K" y0 B+ h8 JBits/(Pixel*Frame) : 0.306
    8 A$ z% U! m1 h5 J" CStream size : 10.2 GiB (94%)$ k* A! J# q  k* F+ @3 Z
    Title : In.My.Fathers.Den.2004.1080p.BluRay.x264.DTS-FGT
    / p: D3 V) `7 U  s6 ^; _6 ~3 ZWriting library : x264 core 148 r2795M aaa9aa8
    1 c  G/ {2 n3 o% f7 dEncoding settings : cabac=1 / ref=4 / deblock=1:-2:-2 / analyse=0x3:0x113 / me=umh / subme=9 / psy=1 / psy_rd=1.00:0.15 / mixed_ref=1 / me_range=16 / chroma_me=1 / trellis=2 / 8x8dct=1 / cqm=0 / deadzone=21,11 / fast_pskip=1 / chroma_qp_offset=-3 / threads=24 / lookahead_threads=3 / sliced_threads=0 / nr=0 / decimate=1 / interlaced=0 / bluray_compat=0 / constrained_intra=0 / bframes=3 / b_pyramid=2 / b_adapt=1 / b_bias=0 / direct=3 / weightb=1 / open_gop=0 / weightp=2 / keyint=250 / keyint_min=25 / scenecut=40 / intra_refresh=0 / rc_lookahead=50 / rc=2pass / mbtree=1 / bitrate=11500 / ratetol=1.0 / qcomp=0.60 / qpmin=0 / qpmax=69 / qpstep=4 / cplxblur=20.0 / qblur=0.5 / vbv_maxrate=31250 / vbv_bufsize=31250 / nal_hrd=none / filler=0 / ip_ratio=1.40 / aq=1:1.009 U; ?  h/ k5 C5 T* d2 ~4 _! V
    Language : English3 s9 O3 t( h- `- g4 i) U
    Default : Yes  x1 F* W# J4 U' @4 N
    Forced : No
    + w4 _) m. d2 f2 r/ M
    % c- u0 M/ P5 ~6 ^: _- sAudio6 }0 c* M4 ?( A" D( E6 k
    ID : 2
    6 k5 S. Z, V# E8 f* @Format : DTS
    , G8 M. Q9 }6 v3 I- W# Q/ ~+ OFormat/Info : Digital Theater Systems9 X# ^! k( V4 Q) \& p  F  R% u9 B: m
    Codec ID : A_DTS
    ! A+ I5 @9 z  TDuration : 2 h 7 min  \; w2 S1 ^; ]1 W# n
    Bit rate mode : Constant2 w# p3 ]: _* l% ]
    Bit rate : 768 kb/s& u  f* M! _2 J5 J
    Channel(s) : 6 channels
    & {5 D% Y% _) F- T6 XChannel layout : C L R Ls Rs LFE
    * g+ s7 L* r0 hSampling rate : 48.0 kHz2 Y0 o7 Y! W1 }7 w
    Frame rate : 93.750 FPS (512 SPF)% h2 ~4 G/ n, i
    Bit depth : 16 bits5 b$ R/ f+ l/ y4 ^5 @
    Compression mode : Lossy: C" y+ N# [" E: I7 H' }" Q
    Stream size : 699 MiB (6%)/ N/ ~+ |/ k6 |( e$ I1 X: K3 @
    Title : In.My.Fathers.Den.2004.1080p.BluRay.x264.DTS-FGT
    9 l3 f& D. q, `6 W  K+ D0 rLanguage : English
    9 |4 {# d- o& L9 l% X8 UDefault : Yes, v: L) c+ J0 a* M4 G
    Forced : No
    ! z' @7 |0 q( Z0 D& ?* Q; J7 ?* P4 @8 s
    Text, w2 q* e- h! d7 \3 Z
    ID : 39 w3 d& D( `4 R
    Format : UTF-86 u' c! D2 b# @& e
    Codec ID : S_TEXT/UTF8
    7 n* D; V5 Y( y6 j5 o9 V+ ~Codec ID/Info : UTF-8 Plain Text
    " P+ M9 h: d2 P) EDuration : 2 h 1 min
    / X, Q2 P6 `, \% O+ t" o: }9 HBit rate : 38 b/s
    % ~' t7 A4 L# G! d% X! JCount of elements : 1123/ y: f5 E, ]6 v* r
    Stream size : 34.5 KiB (0%)
    . h4 @" C) ~' t% S! H8 bLanguage : English6 f7 y- p+ G: L$ D
    Default : Yes
    ) k! v( W7 v7 u! k* `; gForced : No
    ) q1 d6 [0 E# H+ D
    % p) Y8 a( g1 l6 V+ v& }# mMenu7 c4 ?" T. M4 T2 d: J# j7 A9 E( k. y
    00:00:00.000 : en:Chapter 005 p" v: q0 q% ^: J" u  d& J! q: Y
    00:00:00.500 : en:Chapter 01
    ; |+ o* T& Z. A2 v* ?2 g3 e  o00:02:47.916 : en:Chapter 02
    1 Z% e- ~5 c/ ^5 A00:09:32.541 : en:Chapter 03
    - f# Q# t' \1 g* d% o00:17:59.541 : en:Chapter 04: Q: c: P, D9 n7 A3 k7 C7 P
    00:26:45.291 : en:Chapter 05
    ( k: P* z( O) p  z5 A" b- a; S00:34:44.041 : en:Chapter 06% Z1 c! Q$ R4 K9 O+ ?  O4 o
    00:43:11.916 : en:Chapter 07, z# A5 T( T+ @
    00:51:19.250 : en:Chapter 08( ]& B. g) _# G- K8 o
    00:58:28.666 : en:Chapter 09/ S# i: z+ S9 O# Y
    01:03:29.875 : en:Chapter 10  S" Z( v- N4 g% Y' M- W
    01:13:17.750 : en:Chapter 11
    ) b0 V% I0 K1 y* p; S01:20:46.500 : en:Chapter 12
    6 K1 C% D  t8 A% O- i9 p01:30:46.750 : en:Chapter 13
    9 ^4 h8 m- j& ~% S# G) o' [01:39:56.125 : en:Chapter 14
    1 `! [" O( ~2 m* o01:54:07.166 : en:Chapter 15
    ! o2 O! f4 g( ]/ [02:02:55.208 : en:Chapter 160 i0 O& P1 y* [0 o
    02:07:13.208 : en:Chapter 17

    6 u5 p9 G3 \! C( `5 ^$ X1 ?- m, O) m1 `
    # ~% A4 k: q2 ~
    3 Q7 r5 B  p5 N$ T
    8 {% w4 A4 o, J

    本帖子中包含更多资源

    您需要 登录 才可以下载或查看,没有帐号?立即注册

    x
    回复

    使用道具 举报

    您需要登录后才可以回帖 登录 | 立即注册

    本版积分规则

    QQ|广告友链合作联系QQ:1374229927|小黑屋|威酷高清影视论坛

    GMT+8, 2020-6-3 23:58 , Processed in 0.015236 second(s), 13 queries , Gzip On, MemCached On.

    Powered by vkugq.net

    © 2008-2019 vkugq.net Inc.

    快速回复 返回顶部 返回列表