威酷高清论坛

 找回密码
 立即注册
查看: 8|回复: 0
收起左侧

[恐怖] 恐怖屋 House.Of.Horrors.1946.1080p.BluRay.x264.DTS-FGT 5.63GB

[复制链接]
  • TA的每日心情
    奋斗
    2020-5-24 21:44
  • 签到天数: 8 天

    [LV.3]偶尔看看II

    卡西迪奥 发表于 2020-5-23 07:42:18 | 显示全部楼层 |阅读模式
    : U2 T5 @5 s% e; j% j5 E4 o' A* ^) j
      M1 K  K" a0 {7 k% y2 d
    ◎译  名 恐怖& x& B. |  B& Y3 H( ~
    ◎片  名 House of Horrors
    5 z) H# q1 w+ P◎年  代 1946, `- J1 J' Q2 E
    ◎产  地 美国% O) x- P- @5 V
    ◎类  别 惊悚 / 恐怖& o; I6 D# P6 [3 c. j- O4 c
    ◎语  言 英语  j, f5 O. `8 f! W  ]/ q
    ◎上映日期 1946
    # Y( S/ r. b$ k, I◎IMDb评分 6.2/10 from 702 users; C5 r3 _% o2 z! g" C( Z
    ◎IMDb链接 https://www.imdb.com/title/tt0038621
    ! k7 Y% S3 @/ D◎豆瓣评分 0/10 from 0 users  Y7 H7 I9 O8 p2 Q  \
    ◎豆瓣链接 https://movie.douban.com/subject/5067790/# e9 x/ m0 e2 k) \
    ◎片  长 65 分钟
    . S# b1 o% k# ?9 ?! U& e◎导  演 Jean Yarbrough
    ' R# B$ t, V) H( z# J& M4 }  @◎编  剧 Dwight V. Babcock: J5 C" O: v6 o3 n
    ◎主  演 兰道·哈顿 Rondo Hatton
    ' p7 L- ]( M1 x) s* r" {, S$ O0 q      Robert Lowery
    ' E+ w) u8 e/ X; `( ?      弗吉尼亚·格雷 Virginia Grey
    5 w* k' O, B* ?/ x) J# V4 v      比尔·戈德温 Bill Goodwin1 S' ]  s8 L0 {/ u- V
          Martin Kosleck$ v+ G" k$ a3 G- E. M' f4 r
          阿兰·纳皮尔 Alan Napier7 O; J* ]! @* F& L
          Howard Freeman0 F% m. C: I5 [) x) R
          弗吉尼亚克里斯汀 Virginia Christine
    9 F4 @0 h; j- U6 O6 q7 n+ F      Joan Shawlee, G$ D$ ~! [$ ~5 D

    ' N8 b9 H/ c+ }: M. s0 h
    & R! C1 Y: ?/ S* \* }" h◎标  签 美国电影 | 恐怖 | UniversalClassicMonsters | 1940s | 美国 | 惊悚 | 不是默片/ D4 @, B5 k4 ^, E! F
    % G0 k: X' v, w
    ◎简  介
    % y* B( h2 J* g* W, r0 c7 b) W4 t) t- T3 o/ x4 r0 F
      暂无相关剧情介绍
    5 P1 S& G( I# P6 h# n" F/ a) x3 {
    Video' W0 \$ N- h* f- A! T0 m3 g
    ID : 1" |+ V( f% l. r4 @! }+ D
    Format : AVC$ x5 b* Y% z) Z. E$ I7 l
    Format/Info : Advanced Video Codec5 w1 Z9 R+ j1 I7 s$ j! k" A" t9 s: b! P
    Format profile : High@L4.15 B/ s; T( }- N- U
    Format settings : CABAC / 4 Ref Frames# L1 p: U( e2 L& b
    Format settings, CABAC : Yes
    4 s' v* t$ N8 @+ [2 d& N( MFormat settings, Reference frames : 4 frames; E. x& r1 c2 r( d; F
    Codec ID : V_MPEG4/ISO/AVC
    * @* l  G4 s+ G0 \Duration : 1 h 5 min
    7 ~2 B! j; S# j5 P9 M1 wBit rate : 11.5 Mb/s) R7 ?; ^2 y' Q9 y& h6 h: D2 x
    Width : 1 480 pixels/ p* a: c0 I0 M) a+ R# T1 Y
    Height : 1 080 pixels  ]8 \5 M7 J' ?2 o6 g: ^
    Display aspect ratio : 1.3706 Y: B* _( [4 t0 R
    Frame rate mode : Constant9 z; r3 k1 c9 A1 \; H( i( W- T9 \' Y
    Frame rate : 23.976 (24000/1001/189150) FPS
    / i1 h& W9 Q6 o/ UColor space : YUV0 G* c- a7 i5 }7 R; Y$ j) {, ?
    Chroma subsampling : 4:2:0& r6 b( W0 h9 A( Z* L, Q) g
    Bit depth : 8 bits
    8 G0 Y6 \# j0 G" c9 O% \: O/ |4 CScan type : Progressive
    ; Y2 U; j6 T& ~0 \# F/ iBits/(Pixel*Frame) : 0.300# a0 o6 X* H: n1 o
    Stream size : 5.27 GiB (94%)
    ; k  v$ w1 G+ e+ UTitle : House.Of.Horrors.1946.1080p.BluRay.x264.DTS-FGT% Y: N5 T$ c8 \
    Writing library : x264 core 148 r2795M aaa9aa8
    , t) y' i/ Y2 SEncoding settings : cabac=1 / ref=4 / deblock=1:-2:-2 / analyse=0x3:0x113 / me=umh / subme=9 / psy=1 / psy_rd=1.00:0.15 / mixed_ref=1 / me_range=16 / chroma_me=1 / trellis=2 / 8x8dct=1 / cqm=0 / deadzone=21,11 / fast_pskip=1 / chroma_qp_offset=-3 / threads=24 / lookahead_threads=3 / sliced_threads=0 / nr=0 / decimate=1 / interlaced=0 / bluray_compat=0 / constrained_intra=0 / bframes=3 / b_pyramid=2 / b_adapt=1 / b_bias=0 / direct=3 / weightb=1 / open_gop=0 / weightp=2 / keyint=250 / keyint_min=25 / scenecut=40 / intra_refresh=0 / rc_lookahead=50 / rc=2pass / mbtree=1 / bitrate=11500 / ratetol=1.0 / qcomp=0.60 / qpmin=0 / qpmax=69 / qpstep=4 / cplxblur=20.0 / qblur=0.5 / vbv_maxrate=31250 / vbv_bufsize=31250 / nal_hrd=none / filler=0 / ip_ratio=1.40 / aq=1:1.00) F6 j1 \; S& W) G) R6 [! d
    Language : English5 ?9 Q& ^. k& S, D$ n1 p4 p
    Default : Yes
    7 ^  [' P. H- y$ Z) t4 M) {Forced : No
    : P" P3 w2 }1 g8 w1 ]& B" N% U" E0 s: a0 G4 ?% k
    Audio
      ?, @6 ^9 g' I, W$ SID : 2
    ( T9 E& S2 d5 {7 s& eID in the original source medium : 4352 (0x1100)8 V! g2 H6 H! P+ E2 v( G1 P% _
    Format : DTS% m0 Q3 |8 Y/ O& R2 i$ W
    Format/Info : Digital Theater Systems
    7 z6 I2 H7 U0 o: OCodec ID : A_DTS
    9 c, [, a9 c* T" x! ~7 F1 l& nDuration : 1 h 5 min2 I% B8 Q) v/ J, K; f
    Bit rate mode : Constant
    0 V! [4 s% K/ I+ p( L7 ]Bit rate : 768 kb/s
    6 l* Y  N1 K/ ~) E3 zChannel(s) : 1 channel
    ! h. X+ I5 Y* eChannel layout : C% e+ h' D9 {- J: o6 A( M
    Sampling rate : 48.0 kHz& B& Y. @; \: B6 }" Z  r7 `  M
    Frame rate : 93.750 FPS (512 SPF)
    / a# B& m8 w; Z" ~Bit depth : 24 bits- ^- `# W7 S7 W- U, q% ]5 B6 o/ t# v; \
    Compression mode : Lossy- u! @* a( {+ j4 u3 Z! H8 w
    Stream size : 361 MiB (6%)! @4 I' B+ h5 L
    Title : House.Of.Horrors.1946.1080p.BluRay.x264.DTS-FGT
      y. x" M! J; T- t: N9 u+ u  m* xLanguage : English
    , B* N$ R( A4 _- u" ODefault : Yes7 ^1 }, x1 q+ k9 c+ I
    Forced : No+ u& a, v( E( @6 I+ O/ J
    Original source medium : Blu-ray4 O; Q9 v% v7 [% G; b- v) F
    3 r9 V5 x1 d5 X7 h
    Text
    7 E5 f* {/ t& k, iID : 3
    , L7 i+ k' a4 [9 g' l. b. k4 DFormat : UTF-81 X$ P# w/ l; G6 f& u0 `
    Codec ID : S_TEXT/UTF8
    + s! j7 w$ }4 G9 H% uCodec ID/Info : UTF-8 Plain Text; j. d9 p' f$ J
    Duration : 1 h 3 min
    4 x2 l% @% E9 V* h0 \& GBit rate : 75 b/s; N2 |5 ^: s) V" y% O
    Count of elements : 1080  T1 n3 c7 R& ]8 w3 w
    Stream size : 35.0 KiB (0%): L! ^; X3 ?& ?2 I
    Language : English
    8 m9 V1 m0 N; Q& E1 Y+ t, EDefault : Yes! w1 n$ T8 ?( A% F4 _) x' o4 Q
    Forced : No
    * |- X9 s# D$ h; t! }0 Q# K( D. f3 D
    Menu
    9 ?% N/ M/ i: v00:00:00.000 : en:Chapter 015 k# P) v% G5 P$ u
    00:06:10.953 : en:Chapter 02& a" Q1 N/ c& X+ s6 C1 Y5 h' L4 D
    00:12:03.305 : en:Chapter 032 x1 O; g- r  M; ~* U/ l  ?0 m8 c
    00:16:01.168 : en:Chapter 040 e% v, W# j- N5 x7 C# S
    00:21:19.987 : en:Chapter 05
    6 V5 `1 k) H7 A* ?$ F! b. ?00:27:04.080 : en:Chapter 06& q! F2 r4 H( |
    00:33:35.430 : en:Chapter 078 Q) s# i) u% A
    00:39:00.171 : en:Chapter 08
    . S5 m4 q/ K2 Q" ~00:43:42.536 : en:Chapter 099 O0 j2 y9 k2 |. \1 x8 X
    00:49:14.242 : en:Chapter 10
    8 B; W; x' _/ H2 `00:54:12.749 : en:Chapter 11
    * g+ e; r2 ?. Q! `00:58:07.859 : en:Chapter 12
    & z, k# h) a6 v8 m/ \
    # V$ S, v7 f/ q: ?1 J

    ; O- y4 f* m( v3 Y5 L- X- }; L* m5 s' k, }! i% P- o* k

    5 G: E6 E6 w7 Y. S  `2 P; ?$ G; X: S- a: v$ j9 u0 n6 O0 S

    本帖子中包含更多资源

    您需要 登录 才可以下载或查看,没有帐号?立即注册

    x
    回复

    使用道具 举报

    您需要登录后才可以回帖 登录 | 立即注册

    本版积分规则

    QQ|广告友链合作联系QQ:1374229927|小黑屋|威酷高清影视论坛

    GMT+8, 2020-6-4 01:07 , Processed in 0.015731 second(s), 12 queries , Gzip On, MemCached On.

    Powered by vkugq.net

    © 2008-2019 vkugq.net Inc.

    快速回复 返回顶部 返回列表