威酷高清论坛

 找回密码
 立即注册
查看: 6|回复: 0
收起左侧

[剧情] 燈塔下的戀人 Guia.In.Love.2015.CHINESE.1080p.BluRay.x264.DTS-FGT 8.83GB

[复制链接]
  • TA的每日心情
    奋斗
    6 天前
  • 签到天数: 8 天

    [LV.3]偶尔看看II

    . o3 P: F5 D/ F) A0 i
    4 \- s1 q& }- |* d! ^* r
    ◎译  名 灯塔下的恋人 / Guia in Love1 ^' X/ ?2 }+ y2 t$ K
    ◎片  名 燈塔下的戀人
    % L7 Y  Z2 ^  E) t# D◎年  代 2015# M% F) G* N4 E' s3 ?6 W7 Z
    ◎产  地 中国香港
    % }4 L; ~2 h( Q1 S8 K◎类  别 剧情 / 爱情; I* D1 n  Q+ {9 I$ A) E( u
    ◎语  言 粤语 / 汉语普通话
    " |4 i& b" r) N% ?  ]* e# I2 F◎上映日期 2015-09-17(中国香港) / 2016-03-11(中国大陆)
    & y: |) s4 `* T  q% i◎IMDb评分 6.1/10 from 32 users3 M) f9 b* v. H3 d( |
    ◎IMDb链接 https://www.imdb.com/title/tt5221208, E7 }& [" X% U: p8 Y7 z: p5 J
    ◎豆瓣评分 4.6/10 from 918 users
    # ~  s, f: d: [2 w◎豆瓣链接 https://movie.douban.com/subject/26575857/
    7 F) g; x( t* e( w3 ]: a- Z◎导  演 梁德森 Tak-Sam Leong4 [" N- M. \- H) g/ T
    ◎编  剧 梁德森 Tak-Sam Leong / 凌志民 Chi-man Ling / 余景莉 Celia Yu+ Q* H+ k; y; a  @& c
    ◎主  演 邓丽欣 Stephy Tang9 L, j7 a( d+ b5 T, c0 A
          黄又南 You-Nam Wong
    + T0 S+ s& ]6 B" |0 p$ O      薛凯琪 Fiona Sit
    3 A- R( i" H% K5 n- t( v      杨奇煜 Fabien Yang
    3 c4 m3 d2 j1 A1 M1 n, p      刘浩龙 Wilfred Lau2 B  M" I) E* _4 z
          刘心悠 Annie Liu0 G) {0 N) X3 X& S: Y9 f
          蔡瀚亿 Babyjohn Choi8 _5 [  b. L7 ~
          陈慧敏 Vivian Chan
    % w! y& s3 W; E0 x/ A  t  z      小肥 Terence Siufay
    , j1 z' e5 @" a3 P9 e. z      蔡洁 Jacky Cai- V% `' H' `' A6 S9 U  I5 J
          郑欣宜 Joyce Cheng
      T+ Q5 a  o1 `      尹扬明 Yeung Ming Wan+ ?! N0 P4 [. W& P
          林俊贤 Wilson Lam
    ; r4 U$ H, B6 M1 E4 t, P" w( R) k8 l$ q4 G* U: D
    ' E2 Q! q" [0 m& J; g/ H6 W
    ◎标  签 爱情 | 香港 | 2015 | 香港电影 | 澳门 | 剧情 | 邓丽欣 | 刘心悠
    8 H7 I$ m% X' c7 L
    3 b4 a. V* a) {6 B! k3 q◎简  介3 R" n) d) k8 C' n5 }7 y/ [) }

    7 u/ q8 @; [5 q  e. A0 J8 m  陈家声(尹扬明 饰)和周启光(林俊贤 饰)是从小到大的好友玩伴,彼此之间友谊十分坚定,然而,两人却在阴差阳错之中同时爱上了名为李玉兰的美丽女孩,两人的友谊就此产生了裂痕。最终,李玉兰选择了陈家声,失意的周启光背井离乡,远离这片令他伤心的土地。. i; E+ J' Y+ G% m
      一晃眼几十年过去,周启光从默默无闻的莽撞青年一跃成为了家财万贯的澳门富豪,而他的女儿黛比(邓丽欣 饰)则爱上了赌场浪荡荷官子华(黄又南 饰)。那边厢,陈家声和李玉兰的女儿在车祸中不幸去世,留下女婿杨振强(刘浩龙 饰)独自带着儿子滔滔相依为命。人小鬼大的滔滔不忍看见父亲形单影只,于是联手同学小欣,企图将杨振强和小欣的阿姨梓芬(刘心悠 饰)撮合到一起。4 o- Q. Y: ?5 |8 C* ?. |
    Video
    ( U7 s# |( Y, d& y4 @ID : 1; d% b- s2 t4 ]2 r1 ~& Y
    Format : AVC$ W/ p6 c- |2 t% v% W9 A2 k
    Format/Info : Advanced Video Codec# z, e" ]5 Q9 S
    Format profile : High@L4.1* B1 q9 o& }/ K& ?. T6 \
    Format settings : CABAC / 4 Ref Frames5 P' m& j( h! Z
    Format settings, CABAC : Yes
    1 o' N; [9 k8 ^) Z* bFormat settings, Reference frames : 4 frames8 l# x$ Q' l3 f6 ?9 [" O. \1 h
    Codec ID : V_MPEG4/ISO/AVC1 t; ~  ~& ^8 X+ v
    Duration : 1 h 37 min2 \: V7 n1 s" k- n" i4 r% F  V9 J# L( [
    Bit rate : 11.5 Mb/s
    ) r6 f4 s2 a- H. x: ~9 bWidth : 1 920 pixels  _# U% u, j7 t( O' n
    Height : 804 pixels
    8 O% z6 ?7 x5 e, @4 ]# nDisplay aspect ratio : 2.40:1! }/ j+ A5 p5 c1 N
    Frame rate mode : Constant
    6 R0 T0 ~% [9 s% G9 c. f* EFrame rate : 24.000 FPS
    0 _! }) m+ m( E5 EColor space : YUV) Z& L7 k, S* l2 X
    Chroma subsampling : 4:2:0
    # ^) z, V) I6 Y8 kBit depth : 8 bits
    3 y( x. N! k6 a* V7 kScan type : Progressive  _6 H4 D: Z/ t3 p7 m9 i3 R
    Bits/(Pixel*Frame) : 0.310- D5 D& z' g2 u
    Stream size : 7.80 GiB (88%)  g8 Y1 E+ r3 G: l( ~8 F% `- \# y
    Title : Guia.In.Love.2015.CHINESE.1080p.BluRay.x264.DTS-FGT
    7 }& b, _' f8 T# Q2 e1 x$ P( ZWriting library : x264 core 148 r2748 97eaef2
    . p7 g( B& Z" T" z  M1 QEncoding settings : cabac=1 / ref=4 / deblock=1:-2:-2 / analyse=0x3:0x113 / me=umh / subme=9 / psy=1 / psy_rd=1.00:0.15 / mixed_ref=1 / me_range=16 / chroma_me=1 / trellis=2 / 8x8dct=1 / cqm=0 / deadzone=21,11 / fast_pskip=1 / chroma_qp_offset=-3 / threads=24 / lookahead_threads=3 / sliced_threads=0 / nr=0 / decimate=1 / interlaced=0 / bluray_compat=0 / constrained_intra=0 / bframes=3 / b_pyramid=2 / b_adapt=1 / b_bias=0 / direct=3 / weightb=1 / open_gop=0 / weightp=2 / keyint=250 / keyint_min=25 / scenecut=40 / intra_refresh=0 / rc_lookahead=50 / rc=2pass / mbtree=1 / bitrate=11500 / ratetol=1.0 / qcomp=0.60 / qpmin=0 / qpmax=69 / qpstep=4 / cplxblur=20.0 / qblur=0.5 / vbv_maxrate=31250 / vbv_bufsize=31250 / nal_hrd=none / filler=0 / ip_ratio=1.40 / aq=1:1.003 }+ A" Q& c# S' @0 ~& s0 D
    Language : Chinese6 A4 z( I6 j' |- q. [" o- n
    Default : Yes
    9 g  O8 B6 e* V; `" ?, XForced : No8 W2 g% s" H- \3 g6 ^2 Q) X

    - O! X- H& P1 G3 x, Z9 q, cAudio
    $ b1 d+ T; c+ z& Z0 L5 rID : 24 r3 @+ q) @8 g) Q7 F5 S1 ~4 i4 |& c
    Format : DTS" h- h: Q7 V1 [0 a* r2 Q2 B
    Format/Info : Digital Theater Systems( E" O" l6 m4 q# Y8 _3 M& I
    Codec ID : A_DTS4 ?' G6 V; n: {9 F
    Duration : 1 h 37 min5 N# p% Q2 @6 {8 p/ F5 M6 v0 I# ^
    Bit rate mode : Constant
    4 j& o& ?( J9 l  J% D, z+ yBit rate : 1 509 kb/s
    ; l5 F# }3 _: `2 @( Z: HChannel(s) : 6 channels  {: S4 n( R# c4 k* G/ }( V
    Channel layout : C L R Ls Rs LFE
    , O! l. K* f# K* m& S8 I8 i- ^7 fSampling rate : 48.0 kHz
    ) W1 @& ]1 J- V$ `* ^+ T5 W3 X: vFrame rate : 93.750 FPS (512 SPF)
    + t/ G/ o  e5 F' W  xBit depth : 16 bits) R% ?8 u2 a3 S2 z' k
    Compression mode : Lossy. V3 T; w: V- N) a
    Stream size : 1.03 GiB (12%)$ C3 k/ T" X) L7 q8 {& a5 T2 k8 |" j/ V
    Title : Guia.In.Love.2015.CHINESE.1080p.BluRay.x264.DTS-FGT
    - M& G; I- v% |5 E  L$ L) y& P/ ?Language : Chinese
    % c3 |. U+ t, X$ t* ~Default : Yes
    : @- [0 K: b' I5 S* y# g1 D5 eForced : No7 p1 v* j' @- A% J, R
    0 Y0 I% h- b6 i- w. T9 V8 E7 ?' \6 v
    Text
    . U; {# q9 d( AID : 3
    0 M6 U. b' _6 N: aFormat : UTF-8
    * D  ~. f) E2 @1 b' s* vCodec ID : S_TEXT/UTF83 ?: }/ l1 X+ w- e# E
    Codec ID/Info : UTF-8 Plain Text7 }% W3 ?- A" j% T8 B
    Duration : 1 h 31 min
    . r& |/ M: S) ?" j4 F7 yBit rate : 34 b/s* G1 Y( z8 T% @$ T8 Q% G# ~
    Count of elements : 861
    ( E, w- e/ c; B- ^" m% j5 FStream size : 23.4 KiB (0%)
    / E& Q! U! J3 z% NLanguage : English' T. w' G4 r/ k5 n  k, r; s
    Default : Yes
    4 i( @. K8 E6 v$ I# V; fForced : No/ T9 `3 T/ t+ j
    5 ?( W2 ]& O& S; v. Z
    Menu6 R8 D* R! y6 o
    00:00:00.000 : en:Chapter 01% F( G8 L! ?4 I) C2 \! J
    00:08:05.416 : en:Chapter 02* q" ?( y6 a2 u+ j' J4 {9 _1 w8 I" K
    00:17:30.541 : en:Chapter 03
    , o) N; ^. u& ~; e9 v00:24:47.958 : en:Chapter 04
    # {( _6 a$ v- x' z) k00:32:35.333 : en:Chapter 05
    3 @& D6 E! E/ ^! D00:40:31.083 : en:Chapter 06
    ( l! T4 Y- ~, V" H. X00:47:31.791 : en:Chapter 07
    4 D. p) Y/ a6 f& |' r00:56:59.916 : en:Chapter 08/ l- ?+ m. x! v; J; q' W$ \, J) @; w
    01:03:10.458 : en:Chapter 09; `& k* h4 t+ g5 @$ ?
    01:15:09.666 : en:Chapter 10
    6 k3 \- c5 V& F# }( y& d01:23:16.083 : en:Chapter 114 W' }- U; N; `( N
    01:29:49.750 : en:Chapter 12
    6 A8 z) w$ ~: [2 C( g; A9 }, o

    8 ?+ A  u$ c# p1 V2 D) G# Z/ H( H$ Q8 l8 O9 }: k
    , |8 c$ a( N, p" M" a: _& f

    ! V; _* s* q3 F: [4 P/ B( @4 G- j4 \  W" a9 x# a' |3 O; v& ^
    9 D: G, @) x3 a  Y. k# [8 m; i
    1 r$ K; I: L  ~" g, L

    本帖子中包含更多资源

    您需要 登录 才可以下载或查看,没有帐号?立即注册

    x
    回复

    使用道具 举报

    您需要登录后才可以回帖 登录 | 立即注册

    本版积分规则

    QQ|广告友链合作联系QQ:1374229927|小黑屋|威酷高清影视论坛

    GMT+8, 2020-5-30 03:28 , Processed in 0.013979 second(s), 12 queries , Gzip On, MemCached On.

    Powered by vkugq.net

    © 2008-2019 vkugq.net Inc.

    快速回复 返回顶部 返回列表