威酷高清论坛

 找回密码
 立即注册
查看: 9|回复: 0
收起左侧

[剧情] 群婚 Group.Marriage.1973.1080p.BluRay.x264.DTS-FGT 8.20GB

[复制链接]
  • TA的每日心情
    奋斗
    2020-5-24 21:44
  • 签到天数: 8 天

    [LV.3]偶尔看看II

    卡西迪奥 发表于 2020-5-23 07:44:23 | 显示全部楼层 |阅读模式

    * x) C  y7 M* H  L
    ' X+ t, J) X7 d( |7 B◎译  名 群婚- m* v/ t* W5 l' K% H
    ◎片  名 Group Marriage
    / w% V7 R; e$ p; [7 x( m' H◎年  代 19732 Z. T6 _9 m! V6 j  [& A
    ◎产  地 美国
    / A$ ^' b7 U2 i; ]6 K1 Y9 E5 b◎类  别 喜剧. @4 c7 ?8 v/ ]! X/ J
    ◎语  言 英语5 P# j0 z4 {/ ^$ v( g
    ◎上映日期 1973-03
    $ Y4 S# H; ~$ u, e% B◎IMDb评分 5.8/10 from 81 users  ^. K) `6 u: ?# C1 ?. B8 `2 D  o5 O
    ◎IMDb链接 https://www.imdb.com/title/tt0068664
    9 S0 c" |9 w4 X; t' s+ q◎豆瓣评分 0/10 from 0 users
    0 _: G1 q- c5 X& }# I9 u◎豆瓣链接 https://movie.douban.com/subject/25973732/2 v, |2 C' k) k) B8 P3 x2 W
    ◎导  演 Stephanie Rothman. |" J- J$ m% Y% H0 y
    ◎编  剧 Stephanie Rothman / Charles S. Swartz4 Q/ W: m1 v5 v/ k* t% d
    ◎主  演 维多利亚·沃特瑞 Victoria Vetr/ m2 W" F! I, Y/ p2 h+ ]  i. Y
          Aimée Eccles* y% T& d) \3 D6 Y/ P3 R$ d6 v
          Solomon Sturges
    : a( r! q9 j) I+ Q9 `/ e
    ) l9 z! H3 p. |7 G
    + C! {% w( f+ Q: ^0 |* ]* |/ B1 j◎标  签 1973 | 美国 | 美国电影 | 家庭 | 喜剧 | 同性 | ucla | StrongR
    4 Z: k9 R8 ]' G/ J6 s; o" h
    , b, V0 q# A) a6 l: S( S◎简  介. Z7 H$ ^/ T) A

    ! S8 v# l: H9 Y9 a" \/ w  暂无相关剧情介绍3 \% w2 Y7 ~6 @
    Video9 i/ v" d( K, m
    ID : 14 ^+ K! `3 L! ~: }( u& M9 d
    Format : AVC3 \( N* n; ]7 H( S' d
    Format/Info : Advanced Video Codec
    ! z) W4 e5 C1 hFormat profile : High@L4.1
    , Z- V/ l/ L/ T( W+ \: K$ uFormat settings : CABAC / 4 Ref Frames$ @) t0 ]' c2 N
    Format settings, CABAC : Yes
    7 @3 P# d" a  u, h* {4 @  w4 z$ XFormat settings, Reference frames : 4 frames
    2 S: }( j2 [! E7 kCodec ID : V_MPEG4/ISO/AVC: v* V# D! Z; x) W: w
    Duration : 1 h 30 min
    5 q8 u' G1 u1 @* Z/ t: NBit rate : 11.5 Mb/s
    + o+ A$ N$ P! m2 m# @& b. G' {Width : 1 920 pixels
    % o9 Y, [4 k% h1 \! f( q  cHeight : 1 080 pixels
    # @- H+ Z5 [4 l0 O7 ADisplay aspect ratio : 16:9+ v* V+ ]% O# R, s  v
    Frame rate mode : Constant
      p- C, {. A( e+ z- K: IFrame rate : 23.976 (24000/1001/189150) FPS
    # |' O$ m8 f" k& jColor space : YUV
    : J  T  B& u% j9 \/ `Chroma subsampling : 4:2:0
    & V5 ?6 L2 Y4 P9 [Bit depth : 8 bits
    7 Z# N  i$ }2 B0 oScan type : Progressive3 m, w, b5 g8 p* t
    Bits/(Pixel*Frame) : 0.231( K9 b2 P, q0 W% K  }
    Stream size : 7.25 GiB (88%)
    ! l+ g% \) ^! {& A" H$ l' qTitle : Group.Marriage.1973.1080p.BluRay.x264.DTS-FGT
    6 ?: s# P+ _# ]3 ]! u- @Writing library : x264 core 148 r2748 97eaef2
    & d( I! F; a$ r9 BEncoding settings : cabac=1 / ref=4 / deblock=1:-2:-2 / analyse=0x3:0x113 / me=umh / subme=9 / psy=1 / psy_rd=1.00:0.15 / mixed_ref=1 / me_range=16 / chroma_me=1 / trellis=2 / 8x8dct=1 / cqm=0 / deadzone=21,11 / fast_pskip=1 / chroma_qp_offset=-3 / threads=24 / lookahead_threads=3 / sliced_threads=0 / nr=0 / decimate=1 / interlaced=0 / bluray_compat=0 / constrained_intra=0 / bframes=3 / b_pyramid=2 / b_adapt=1 / b_bias=0 / direct=3 / weightb=1 / open_gop=0 / weightp=2 / keyint=250 / keyint_min=25 / scenecut=40 / intra_refresh=0 / rc_lookahead=50 / rc=2pass / mbtree=1 / bitrate=11500 / ratetol=1.0 / qcomp=0.60 / qpmin=0 / qpmax=69 / qpstep=4 / cplxblur=20.0 / qblur=0.5 / vbv_maxrate=31250 / vbv_bufsize=31250 / nal_hrd=none / filler=0 / ip_ratio=1.40 / aq=1:1.00' e( [! ~8 a$ B  w
    Language : English- r" @+ q: H! s( R3 |" t/ d
    Default : Yes
    " F8 t( J7 {) W+ JForced : No$ K3 w  H+ y( v& R; {
    / n5 A/ T' y) ~
    Audio
    1 w3 B9 H- h6 a3 R1 e* ZID : 2
    6 @( j& j0 w" N8 ~Format : DTS$ L3 Z3 I, p$ {+ {1 S, t
    Format/Info : Digital Theater Systems% Q4 q6 }; _% @5 g& R, ~
    Codec ID : A_DTS- h( @0 _% P# l1 E* P, e6 _
    Duration : 1 h 30 min6 W# U6 Y1 g3 T4 x
    Bit rate mode : Constant- e+ R, O2 \% B
    Bit rate : 1 509 kb/s2 F0 f* k6 ~$ Z2 n$ ]8 i
    Channel(s) : 2 channels
    ( ]( J3 ~3 r% {: zChannel layout : L R
    * d  h1 U/ P7 P& F( ?# KSampling rate : 48.0 kHz
    9 r* m* w) a$ f' t! O/ O1 {* `Frame rate : 93.750 FPS (512 SPF)
    ( n# v2 g9 E+ S3 pBit depth : 24 bits7 V4 F; R0 B/ R5 L  g0 m* B/ E
    Compression mode : Lossy1 Q# F3 L3 `- ?4 f
    Stream size : 974 MiB (12%)
      k, o! g* S4 {Title : Group.Marriage.1973.1080p.BluRay.x264.DTS-FGT
    3 m$ \8 f( o( WLanguage : English
    . o. o, O1 _- @- X) c, ODefault : Yes
    4 a1 s$ M4 F" vForced : No
    * H/ U! [! }7 ~/ V, Y
    ' ^* Y. z  M' r+ [7 w* F  CMenu
    + v7 q2 ?& A# _4 o( a00:00:00.000 : en:Chapter 01, K' j3 p: z5 T$ T
    00:04:59.882 : en:Chapter 02
    ( m) O0 u0 E; S- y00:11:23.432 : en:Chapter 03
    ' O9 T, A" p$ k00:18:55.050 : en:Chapter 04% W) B( w3 I2 T$ U$ C  M
    00:24:39.644 : en:Chapter 05
    5 [  ], e* U3 O: w) [) ~* f$ O) W00:33:17.495 : en:Chapter 06
    " Y  \  D" g3 s2 X2 ]) u00:38:12.039 : en:Chapter 07
    9 o0 Y/ u1 d, c4 z* D7 ~4 A00:41:52.593 : en:Chapter 080 q. S3 X1 J5 O9 l3 V5 V5 X
    00:49:18.038 : en:Chapter 09% c* ?- I# M- h  K
    00:58:20.038 : en:Chapter 10
    ( n6 ^; k3 e, q! F, f01:07:35.885 : en:Chapter 11: l1 E, t1 n! m/ v/ e! s1 i
    01:15:17.888 : en:Chapter 12+ J( Z- m% a) O, S) h% w
    01:23:05.814 : en:Chapter 13
    # m( d! [  O" ]  {9 W01:29:41.584 : en:Chapter 14

    / U; Q% m' O# W) S9 x
    3 A. T, [; \3 {: X0 N/ V! n- g& m0 g1 n, s  Q  y" c

    - {' p5 ]9 ~: g; R
    1 t9 l' o2 }9 V# L& W8 A
    + w- j+ n) @) O7 h& S7 A$ M3 m; w1 }8 T

    本帖子中包含更多资源

    您需要 登录 才可以下载或查看,没有帐号?立即注册

    x
    回复

    使用道具 举报

    您需要登录后才可以回帖 登录 | 立即注册

    本版积分规则

    QQ|广告友链合作联系QQ:1374229927|小黑屋|威酷高清影视论坛

    GMT+8, 2020-6-4 00:34 , Processed in 0.015483 second(s), 13 queries , Gzip On, MemCached On.

    Powered by vkugq.net

    © 2008-2019 vkugq.net Inc.

    快速回复 返回顶部 返回列表