威酷高清论坛

 找回密码
 立即注册
查看: 7|回复: 0
收起左侧

[剧情] 舞吧女孩/跳吧女孩子 Dance.Girl.Dance.1940.1080p.BluRay.x264.DTS-FGT 8.16GB

[复制链接]
  • TA的每日心情
    奋斗
    2020-5-24 21:44
  • 签到天数: 8 天

    [LV.3]偶尔看看II

    卡西迪奥 发表于 2020-5-23 07:45:14 | 显示全部楼层 |阅读模式

      `9 i" H* a- Q  o, `4 F( l. r# u4 a0 n7 J  G. @1 \, n) g! b! R
    ◎译  名 舞吧,女孩 / 跳吧,女孩子7 S* a  L  y' L1 G
    ◎片  名 Dance, Girl, Dance7 S% b8 s0 Y/ m: g+ X
    ◎年  代 19405 W% N4 L  L! b( T% R
    ◎产  地 美国
    4 z( E0 Q! b8 x# p1 V◎类  别 剧情 / 喜剧" B3 g6 [4 [, Z7 C/ g
    ◎语  言 英语
    8 d7 _/ D( m% l2 D: P◎上映日期 1940-08-30
    # M' y1 y) Y8 R" W  F: c; k◎IMDb评分 6.7/10 from 1847 users. j; ?8 h2 n3 N2 q9 a; v
    ◎IMDb链接 https://www.imdb.com/title/tt00323762 i5 A* a* \( a# l
    ◎豆瓣评分 7.3/10 from 522 users
    " L, @! u" W: D# S+ q◎豆瓣链接 https://movie.douban.com/subject/1304153/; \2 R9 I) p0 x3 }5 @7 m% b! @
    ◎片  长 90 分钟9 i  E' x" m; F, v% s  h; v- v
    ◎导  演 多萝西·阿兹娜 Dorothy Arzner
    % X! u3 w. y( b2 [◎编  剧 弗兰克·戴维斯 Frank Davis / 苔丝·施莱辛格 Tess Slesinger / 维基·包姆 Vicki Baum) y/ q+ I: B7 c
    ◎主  演 玛琳·奥哈拉 Maureen O'Hara
    9 x$ H' B7 u( M4 G( h1 d      路易斯·海沃德 Louis Hayward
    ' s+ l: D( c7 d4 S/ O  {      露西尔·鲍尔 Lucille Ball
    + e# L+ M; c+ ~, G( l0 ]% O      弗吉尼亚·菲尔德 Virginia Field+ @5 _3 Q6 I5 H" c% m
          拉尔夫·贝拉米 Ralph Bellamy: ?" b/ X( n) @) M/ K1 ]: u- u3 H. Y

    ! u- ~, O& L3 |
    ) x/ D* I' y/ _$ ?9 x2 m4 |8 A◎标  签 美国 | Dorothy_Arzner | 1940s | 美国电影 | 女性 | 1940 | 女性导演 | 经典. F0 A. G+ a7 f
    / s6 u7 R9 `. z) g, i0 P& Z
    ◎简  介
    ' t( Y/ I8 p: {' i! e
    6 f- U6 X7 x( @9 x8 q& F  暂无相关剧情介绍
    ; C5 y9 j8 I9 M+ F. P. G. `: x
    Video0 p: O* Y8 [# l/ O' f4 {& k, M) x
    ID : 1
    & |% T. C: o$ Q! Y  RFormat : AVC
    8 t0 S3 L  T) V. B' W7 G: a- M9 x9 AFormat/Info : Advanced Video Codec+ j. I+ Y, i$ @; M- ^
    Format profile : High@L4.15 ^, K# P  R8 w, N
    Format settings : CABAC / 4 Ref Frames
    ( j* M4 U( d2 P) p1 ~Format settings, CABAC : Yes( s3 m% g4 y) |9 |- _/ K
    Format settings, Reference frames : 4 frames
    / r. Y  l6 B; \* LCodec ID : V_MPEG4/ISO/AVC! ]! d" y9 _, |& W0 m- |
    Duration : 1 h 29 min5 H# n0 n. f0 G* l$ b/ ^+ {  o, Q
    Bit rate : 11.5 Mb/s
    * o9 u7 }" r/ w3 Q: u6 f7 F2 m+ }5 oWidth : 1 480 pixels
    & `, L' u' N/ ~Height : 1 080 pixels
    ; n; I' }1 ]: SDisplay aspect ratio : 1.3705 G  N# P% _4 j( Z4 Q+ ]3 O
    Frame rate mode : Constant$ s3 J  e4 S; |1 Z5 _# H
    Frame rate : 23.976 (24000/1001/189150) FPS
    1 B- E2 ]2 Z/ ]! Z0 uColor space : YUV
    & y5 q9 ]) h+ U* ?& L/ m9 [/ XChroma subsampling : 4:2:08 ~) T8 c6 _- k! B. p4 u0 r7 F+ A2 M
    Bit depth : 8 bits
    & f$ ?$ `4 T% g  nScan type : Progressive
    + M- q% m2 M- D4 E! O, o" uBits/(Pixel*Frame) : 0.300, t3 Q8 y0 }( g; y0 O
    Stream size : 7.21 GiB (88%)
    4 Y, O( H; Y: A& r+ t0 ]* VTitle : Dance.Girl.Dance.1940.1080p.BluRay.x264.DTS-FGT
    % \3 Q( m- ^8 y. SWriting library : x264 core 148 r2795M aaa9aa8
    4 o9 m& z8 M( m' ^Encoding settings : cabac=1 / ref=4 / deblock=1:-2:-2 / analyse=0x3:0x113 / me=umh / subme=9 / psy=1 / psy_rd=1.00:0.15 / mixed_ref=1 / me_range=16 / chroma_me=1 / trellis=2 / 8x8dct=1 / cqm=0 / deadzone=21,11 / fast_pskip=1 / chroma_qp_offset=-3 / threads=48 / lookahead_threads=3 / sliced_threads=0 / nr=0 / decimate=1 / interlaced=0 / bluray_compat=0 / constrained_intra=0 / bframes=3 / b_pyramid=2 / b_adapt=1 / b_bias=0 / direct=3 / weightb=1 / open_gop=0 / weightp=2 / keyint=250 / keyint_min=25 / scenecut=40 / intra_refresh=0 / rc_lookahead=50 / rc=2pass / mbtree=1 / bitrate=11500 / ratetol=1.0 / qcomp=0.60 / qpmin=0 / qpmax=69 / qpstep=4 / cplxblur=20.0 / qblur=0.5 / vbv_maxrate=31250 / vbv_bufsize=31250 / nal_hrd=none / filler=0 / ip_ratio=1.40 / aq=1:1.00
    9 U5 l! d. _. a+ q, h( b) oLanguage : English
    ) q7 R  Z' f4 m; ]/ s/ f$ \Default : Yes
    9 V, S6 M9 q7 O4 ?& M! uForced : No- o0 w" s% }) ~7 x
    - E  T" r! n) Q! R- s9 b# O% E+ G+ `
    Audio
    : O1 C; N! p. O2 TID : 2
    9 {# C3 i; L  `Format : DTS
    7 q* n/ _4 j; {Format/Info : Digital Theater Systems  ]3 n1 q9 {* p0 w7 |0 G# E  ^" i6 c
    Codec ID : A_DTS. ~# T; v) q# A
    Duration : 1 h 29 min
    ( s! \1 ^+ H1 k% c$ Z8 e6 m1 CBit rate mode : Constant
    0 g/ c9 ]: L3 [+ LBit rate : 1 509 kb/s  ~  n7 |% u" p. j1 F
    Channel(s) : 1 channel: ?* M! W/ I( `! X0 t3 S! G
    Channel layout : C3 E+ t; `; M, i1 N* _1 K
    Sampling rate : 48.0 kHz: y. L3 h: o9 u! f
    Frame rate : 93.750 FPS (512 SPF)( S6 A- Y; ?9 o0 u
    Bit depth : 16 bits
    4 m2 C; U$ q' ~: }Compression mode : Lossy: y/ |5 I% m4 I2 o* o7 o( [
    Stream size : 969 MiB (12%)" J2 b/ ^4 ~& e3 \  i4 k
    Title : Dance.Girl.Dance.1940.1080p.BluRay.x264.DTS-FGT
    9 P" L6 i' r5 k7 d3 ?0 gLanguage : English
    8 y7 O1 e9 ]( U. M/ J6 ~Default : Yes
    * b% ]" ]3 }8 C& t; M/ vForced : No) U. a* o! [. S$ ^
    + K( ~1 H0 j, }2 y0 ~
    Text
    2 d: G# U2 W2 tID : 3/ K( D% W: Z% ^. n# J5 \
    Format : UTF-8
    , v. d) A8 P5 }5 V' u) \) QCodec ID : S_TEXT/UTF8
    . F" m/ l8 r+ @0 |) p! eCodec ID/Info : UTF-8 Plain Text3 O; p+ E8 A6 O& F2 [8 H
    Duration : 1 h 26 min# A% c2 T# L" T7 Z, @/ C
    Bit rate : 62 b/s
    # a4 j" }- j' jCount of elements : 1084
    3 \6 Y- [( y; f3 e3 c* ]Stream size : 39.4 KiB (0%)/ Q, q7 Q# A. z' X. V
    Language : English
    ( z" U3 I3 a4 V( t. n0 ^Default : Yes8 T6 D4 `, u) ^( S+ ]1 P
    Forced : No
    $ v2 H/ Y* Y3 t6 [& g1 n1 W& z8 p: n7 `& f. u
    Menu
      u9 J0 ~" Q1 e$ T6 Y: _00:00:00.000 : en:Chapter 019 a- {* @, O+ z( e( |) p
    00:10:30.839 : en:Chapter 02
    5 l/ D0 H: J7 q: E6 T' K  w00:13:55.209 : en:Chapter 03
    ; A7 `; _8 o# ~' j! J  H5 T00:21:41.509 : en:Chapter 04
    - J7 G6 S7 j, R3 C00:34:23.520 : en:Chapter 051 T: h2 y% F( ^- u, P2 r. a
    00:40:54.494 : en:Chapter 065 q1 @8 h4 ~' [
    00:51:52.818 : en:Chapter 07
      q9 J7 y9 k, C9 w01:01:53.293 : en:Chapter 08
    1 w8 a/ B7 D& l  S+ Z01:10:20.007 : en:Chapter 09( `+ w; c! m$ r# b" p8 G) K
    01:20:03.257 : en:Chapter 10# r" ?, Y* K& @/ I, n" H
    01:26:40.404 : en:Chapter 11
    5 g7 B- m5 W* k5 I
    + h4 g4 N: X. G7 ~- l( M

    1 r8 v6 d8 E* J0 R2 ^( u" ]! S3 X4 F1 F; h! s# y) I1 }1 W! v+ p

    " Z3 j1 I4 E- z% y3 w4 n' K! j# e
    + z9 Q+ h8 t3 N8 Q$ j; s1 e

    本帖子中包含更多资源

    您需要 登录 才可以下载或查看,没有帐号?立即注册

    x
    回复

    使用道具 举报

    您需要登录后才可以回帖 登录 | 立即注册

    本版积分规则

    QQ|广告友链合作联系QQ:1374229927|小黑屋|威酷高清影视论坛

    GMT+8, 2020-6-3 23:05 , Processed in 0.019711 second(s), 13 queries , Gzip On, MemCached On.

    Powered by vkugq.net

    © 2008-2019 vkugq.net Inc.

    快速回复 返回顶部 返回列表