威酷高清论坛

 找回密码
 立即注册
查看: 5|回复: 0
收起左侧

[剧情] 血回廊 Corridors.of.Blood.1958.1080p.AMZN.WEBRip.DDP2.0.x264-TEPES 4.13GB

[复制链接]
  • TA的每日心情
    奋斗
    6 天前
  • 签到天数: 8 天

    [LV.3]偶尔看看II


    ! l: L% H7 O8 M) e4 t, D0 D  g5 ^/ d. r& o
    ◎译  名 血回廊 / Doctor from Seven Dials / 血色走廊
    ( H" @; ~0 [( P! ]! }+ T: f◎片  名 Corridors of Blood$ ^6 u, E! T$ N6 i
    ◎年  代 1958. I4 l8 w# y/ g( S# l+ {4 l$ S
    ◎产  地 英国
    / C" ?# W# X1 K/ x◎类  别 剧情 / 惊悚 / 恐怖 / 犯罪
    8 l3 j7 `$ z# X- ^" J- e: @+ h$ O◎语  言 英语3 O2 u& ^! E0 n: l9 ^7 ]
    ◎上映日期 1958-12-01
    0 S, n. m; k- I! L◎IMDb评分 6.5/10 from 1655 users/ U" _9 p" T  ]9 u0 l  P
    ◎IMDb链接 https://www.imdb.com/title/tt0051542
    % B% q+ B% b; H8 G6 U◎豆瓣评分 6.1/10 from 101 users
    0 Z( [, f8 v; v/ u) i$ r. n9 d- I◎豆瓣链接 https://movie.douban.com/subject/1904183/
    8 Q  M/ r4 \+ a: U◎片  长 86 分钟- h: i! G* q: q/ W, N0 a4 ?3 }- K
    ◎导  演 Robert Day6 \) J/ Z2 T0 F& y) O" Q
    ◎编  剧 Jean Scott Rogers; H/ X/ O! F% i) p
    ◎主  演 Boris Karloff
    5 p- f- E' ?1 L5 i# h      Betta St. John4 Y& b3 s8 u: j4 B3 Z
          Christopher Lee
    - h3 s; [2 }* u% d+ S" N0 `; X+ y. F      Finlay Currie  e' l: W5 Q  E6 A8 G

    ( |$ v0 q8 k9 W. G6 v8 u' {; _8 U- y5 E# G* a
    ◎标  签 英国 | CC | 惊悚 | 1958 | 英国电影 | cult | RobertDay | CC版
    , Z: e) `3 `7 p7 d: e1 o
    " ]$ y# J+ `+ \: y' E/ h; B◎简  介; A! b5 x$ M# _
    , V+ J8 x1 o' o
      为了解决外科手术带来的痛苦,十九世纪四十年代伦敦的Thomas Bolton医生致力研究一种基于鸦片的麻醉药,不久他因此染上了毒瘾。为了使实验能够进行下去同时满足毒瘾,他不得不面对利用他签名出售尸体的谋杀犯。- T. ]9 t- Q- x8 ^
    Video/ |& O" B2 T5 g  ^
    ID : 1
    8 k3 h; e( L% j# l$ j2 t1 _2 _Format : AVC/ Q' F, Q" |6 }5 o) _
    Format/Info : Advanced Video Codec
    : x4 e* z+ `" F+ t( kFormat profile : High@L4/ w- I9 H8 d( s0 l
    Format settings : CABAC / 4 Ref Frames
    $ x+ r* G/ c! r  a9 q+ tFormat settings, CABAC : Yes
    1 A. D# `7 d! F. a4 v" V) IFormat settings, Reference frames : 4 frames
    : r: z* P5 H7 B% V$ wCodec ID : V_MPEG4/ISO/AVC/ G) _9 F% w* {/ o5 E- \
    Duration : 1 h 26 min
    # l+ e( `6 u0 c8 Q5 w* c/ {Bit rate mode : Variable
    2 w3 ^0 i4 {0 y9 ^& N/ H5 cBit rate : 6 567 kb/s3 x' J4 h9 T! t* |0 o0 Q0 z& I  P
    Maximum bit rate : 15.0 Mb/s9 f/ k$ m& G, g
    Width : 1 920 pixels
    : s: {% k8 i8 pHeight : 1 080 pixels
      Q0 W9 r% z0 BDisplay aspect ratio : 16:99 H5 x6 a- f2 d; Y6 a1 q6 ?9 i
    Frame rate mode : Constant! u0 n; g0 R9 a8 ]3 T( w
    Frame rate : 23.976 (24000/1001/189150) FPS
    $ \$ l( R3 t# uColor space : YUV
    " z  g8 C. i( Z, cChroma subsampling : 4:2:0! a4 e0 B2 P" k, U: y. d; a
    Bit depth : 8 bits1 f  u  e2 C% v% Z; {3 l
    Scan type : Progressive
      Y* S7 N) l1 }; j" e9 g7 l, ^Bits/(Pixel*Frame) : 0.1328 [1 F0 R% w! P. V2 z& y/ L
    Stream size : 3.99 GiB (97%): i7 R1 n& x1 `
    Writing library : x264 core 148 r2623 d5b23740 P7 Z* z% S* [2 ~( |/ T
    Encoding settings : cabac=1 / ref=4 / deblock=1:-1:-1 / analyse=0x3:0x133 / me=umh / subme=9 / psy=1 / psy_rd=1.00:0.15 / mixed_ref=1 / me_range=24 / chroma_me=1 / trellis=2 / 8x8dct=1 / cqm=0 / deadzone=21,11 / fast_pskip=1 / chroma_qp_offset=-3 / threads=34 / lookahead_threads=5 / sliced_threads=0 / nr=150 / decimate=1 / interlaced=0 / bluray_compat=0 / constrained_intra=0 / bframes=8 / b_pyramid=2 / b_adapt=2 / b_bias=0 / direct=3 / weightb=1 / open_gop=0 / weightp=2 / keyint=120 / keyint_min=61 / scenecut=0 / intra_refresh=0 / rc_lookahead=120 / rc=crf / mbtree=1 / crf=18.0 / qcomp=0.60 / qpmin=0 / qpmax=69 / qpstep=4 / vbv_maxrate=15000 / vbv_bufsize=31250 / crf_max=0.0 / nal_hrd=vbr / filler=0 / ip_ratio=1.40 / aq=3:1.00  b& z! m$ \4 ~) E5 C4 @
    Default : Yes
    % u% z$ c; m, d' j+ O8 `4 Q% A4 b$ CForced : No
    $ Z) L+ t0 N. A1 o7 TColor range : Limited  w% a3 u0 w* n( |+ S# H
    Color primaries : BT.709& n+ r' A  I* \7 P$ S3 d/ i2 r) z
    Transfer characteristics : BT.709
    + g3 w. D+ z7 [1 h# GMatrix coefficients : BT.709
    , I6 j: L, x1 M0 l* q0 Q4 }8 u# Z# I6 x
    Audio
    : X# j" ~7 B0 ?! }( i! \) G7 W8 XID : 27 J3 h$ g* z4 x6 ^6 y' F
    Format : E-AC-36 n0 Q$ d) M) h+ w6 J) I; F  y
    Format/Info : Enhanced AC-3- U2 \8 X( I7 e! D
    Commercial name : Dolby Digital Plus& a1 i+ e# R# O( u8 f! O
    Codec ID : A_EAC32 H4 Q8 z' v3 I4 }( T  ?
    Duration : 1 h 26 min
    $ a" U- {+ x" q9 dBit rate mode : Constant1 v) O$ n: F5 G0 _1 f( }
    Bit rate : 224 kb/s
    9 f7 C8 n0 m) g, E2 J& h* O2 G5 |Channel(s) : 2 channels; Y5 N# S: H( u- w
    Channel layout : L R$ _( ?+ L2 Y) L' d- i( |
    Sampling rate : 48.0 kHz, ^# E* u8 o$ x5 [$ h! e
    Frame rate : 31.250 FPS (1536 SPF)& `% U5 o$ m0 ?. _
    Compression mode : Lossy) H+ w' o1 I7 {
    Stream size : 139 MiB (3%)/ F8 C9 g3 c. r) n* E
    Language : English0 v  O+ }8 R/ o8 V6 n- c- C
    Service kind : Complete Main* D) g& H+ L2 G
    Default : Yes6 v+ h: L- E+ t" M
    Forced : No2 i. L) y" L' h; T) w
    ' s- W. n# }" q! I8 \
    Text #1, n/ |' ~* g' j* @
    ID : 36 r) @! \; F/ i; Z  k0 }
    Format : UTF-8, A# \: U0 [: P1 V
    Codec ID : S_TEXT/UTF81 B4 [( ^* x/ }" E# S5 j
    Codec ID/Info : UTF-8 Plain Text" I$ D9 ], C2 x8 Y/ i# v
    Duration : 1 h 23 min; i/ {5 P' ]% {( t8 U
    Bit rate : 52 b/s0 Q& x' T2 [- T& j' d& M
    Count of elements : 831, A/ p8 E5 j; E- w8 V
    Stream size : 32.2 KiB (0%)- i  S0 J8 O  P8 ^7 q
    Language : English6 j. Y8 z! N2 w: Z5 g
    Default : No
    # ~' t9 |9 E& y. E! P: _Forced : No( D0 @% U8 d3 Y" Y  r

    ) m) O. ^0 y. N8 jText #2
    . @; u/ m/ ^% ?/ s! P: ^ID : 4
    ; f6 f5 D6 m% S# Y% TFormat : UTF-8; X0 O4 Q: J7 x( ~4 e* a" T
    Codec ID : S_TEXT/UTF8, ~; k4 o' }2 k2 E& v' b
    Codec ID/Info : UTF-8 Plain Text
    # }9 N! a3 ~% \Duration : 1 h 23 min
    . ?, @& f- ~6 [# d! |Bit rate : 60 b/s
    8 O6 u0 q  w* F; E# c) d0 `- W- uCount of elements : 975% R8 s$ c* q4 d% K& O# Z
    Stream size : 37.0 KiB (0%)" X) M8 {* f* e- q
    Language : English6 b% R5 \( F9 \. f
    Default : No- w7 q# D+ S* O% F: A# \# M4 w
    Forced : No
    ! ?& Y- C: y5 n5 D7 v/ R

    6 b# v! ]0 I$ }$ O6 p- h& B( q4 @( F9 F& V
    5 @# N- b8 z1 Y& q5 _0 J

    # X) u1 V' f6 A4 `5 T9 T: H# ?1 B$ h# Y3 o

    ) p6 V0 e6 S$ k4 |) q" q
    ) y& M# B, g& H) J

    本帖子中包含更多资源

    您需要 登录 才可以下载或查看,没有帐号?立即注册

    x
    回复

    使用道具 举报

    您需要登录后才可以回帖 登录 | 立即注册

    本版积分规则

    QQ|广告友链合作联系QQ:1374229927|小黑屋|威酷高清影视论坛

    GMT+8, 2020-5-30 04:28 , Processed in 0.019346 second(s), 13 queries , Gzip On, MemCached On.

    Powered by vkugq.net

    © 2008-2019 vkugq.net Inc.

    快速回复 返回顶部 返回列表