威酷高清论坛

 找回密码
 立即注册
查看: 6|回复: 0
收起左侧

[剧情] 俘获玛丽/记录玛丽 Capturing.Mary.2007.1080p.AMZN.WEBRip.DDP2.0.x264-TEPES 10.57GB

[复制链接]
  • TA的每日心情
    奋斗
    2020-5-24 21:44
  • 签到天数: 8 天

    [LV.3]偶尔看看II

    卡西迪奥 发表于 2020-5-23 07:48:14 | 显示全部楼层 |阅读模式
    8 O# ]" P$ D6 x. j
    $ f9 z$ e& p; F; |6 m
    ◎译  名 俘获玛丽 / 记录玛丽1 [1 n% H6 A! l, Y' d$ T
    ◎片  名 Capturing Mary$ M2 G3 }4 G1 {4 v1 `
    ◎年  代 2007$ G+ K! L8 T1 r! u
    ◎产  地 英国* G, E3 _+ ^# p. w! f
    ◎类  别 剧情6 c3 K, M5 S1 v) w/ s* o, f5 `7 i
    ◎语  言 英语
    2 D- O! }8 N! M◎上映日期 2007-11-12
      [* z% d9 n# q3 ^- M◎IMDb评分 6.9/10 from 1563 users# H* T4 q7 x$ |, d
    ◎IMDb链接 https://www.imdb.com/title/tt0899052
    ; p  w" M# v& Y7 n# L- S, p◎豆瓣评分 7.8/10 from 268 users& N" n  I, a% Y; w5 o; o! E
    ◎豆瓣链接 https://movie.douban.com/subject/2287158/2 M* a) J1 j( \* X8 y5 Z- i3 q9 I
    ◎导  演 斯蒂芬·波利亚科夫 Stephen Poliakoff' x' p. I, I& D' R
    ◎编  剧 斯蒂芬·波利亚科夫 Stephen Poliakoff
    9 O! I2 H* B+ S◎主  演 玛吉·史密斯 Maggie Smith. I( H- [  A' z5 Y& l, p
          大卫·威廉姆斯 David Walliams
    ; V; A% H7 K/ c  b1 S3 t) Q      露丝·威尔森 Ruth Wilson
    - Y% w( {8 R8 i% D* S2 V* }
    , X+ U" @" C! j* D6 j
      `, B# j# T  o+ Y; d+ a& e5 `3 }◎标  签 英国 | MaggieSmith | BBC | 英国电影 | 英剧 | 女性 | 2007 | DavidWilliams
    ; o" ]; E: I, }( g1 D
    3 C1 Q% v; O, D( X9 V+ \7 T, H' J3 x  K◎简  介
    4 F; S6 E3 Y) f, Q$ R4 K& p. n
    , s$ b! s& R% N  z  如果没有看AReal Summer,并不会对欣赏 Capturing Mary有太大影响。这个故事是说女作家 Mary年纪轻轻就显露才华,为一家星期天报纸写专栏,以“年轻人的声音”自居。她被邀请到 Joe’s Palace中的大宅参加名流艺术家的晚会,遭遇了一个神秘且具有强大影响力的男人Greville。Mary被Greville的神秘感吸引,然而面对他的步步逼近的精神上的操纵,她坚决地拒绝了。她的事业从此碰壁,写作陷入低潮。多年以后Mary已经重建自己的事业,却一直无法走出Greville的阴影,为逃避精神上的压力而酗酒。直到有一天她终于鼓足勇气,面对过去,重返久违的大宅,看门人Joe为她打开了大门……" A. N; d. ]+ b0 T9 g% x9 t% a
    Video' H) k  ?% Z' D0 E5 A& _2 n; j" A
    ID : 16 X0 w3 F+ u$ q4 ~2 x
    Format : AVC% b% U. x7 l% [$ K& q  U
    Format/Info : Advanced Video Codec# w( R0 m% K/ P
    Format profile : High@L43 a: ^! O- b; Z  K* ?( d' `2 y
    Format settings : CABAC / 4 Ref Frames5 W2 B. f% u0 J, s4 j4 \: h
    Format settings, CABAC : Yes; \1 ^6 v  @9 T; I; M
    Format settings, Reference frames : 4 frames+ V. E0 t! J1 |3 w& E# T
    Codec ID : V_MPEG4/ISO/AVC
    4 r7 M0 G1 T3 }Duration : 1 h 44 min
    0 E! J; z) d) |4 @Bit rate mode : Variable
    1 w9 u. Y# u5 q! n1 V' s: QBit rate : 14.2 Mb/s
    + w' H4 R: B; c* cMaximum bit rate : 15.0 Mb/s- }: b  ~% k( [  D5 g+ a
    Width : 1 920 pixels4 p9 y0 T6 A9 r3 R' @2 ]
    Height : 1 080 pixels
    ; Z# E: O9 ~0 L" ?. M+ EDisplay aspect ratio : 16:9' W7 K; }/ ^7 S, S; F1 z
    Frame rate mode : Constant
    ! [/ Z0 \* [  WFrame rate : 23.976 (24000/1001/189150) FPS
    7 e1 h7 |7 Z1 VColor space : YUV7 g' b0 t) F( x( k, O
    Chroma subsampling : 4:2:02 H# Q- \) q+ K% m
    Bit depth : 8 bits
    ' m$ ?# v/ @2 c# tScan type : Progressive, D  H! d: T( F* ^
    Bits/(Pixel*Frame) : 0.286" y+ `) R4 I% _6 w$ r
    Stream size : 10.4 GiB (98%)
    , b% f) D% s8 T( u/ J4 yDefault : Yes2 T' m* Y; q; M7 I1 p4 c" F
    Forced : No1 c3 I+ ~3 }. P! G$ t
    Color range : Limited  o; b0 i! q+ z, _
    Color primaries : BT.7092 P+ k4 q8 c  [+ a
    Transfer characteristics : BT.709' ?: k1 U2 C- d  I$ A, h: f
    Matrix coefficients : BT.7099 n3 E( r6 J' c+ S5 n- W5 E
    / U  ?- U5 L* m" K; ^. N
    Audio: R! B( {" ~0 @- I$ R6 r
    ID : 2
    , M7 R9 L, H4 hFormat : E-AC-30 N2 [9 T" R5 t' C9 |  G
    Format/Info : Enhanced AC-3
    ; ?2 Y0 m2 U# u; o* YCommercial name : Dolby Digital Plus
    # U8 ]1 Q* S9 ~' iCodec ID : A_EAC3
    2 X5 Q# Z% b% EDuration : 1 h 44 min  w3 S+ U4 o/ O, S" t" B
    Bit rate mode : Constant! G  g/ }' a) e4 u) y
    Bit rate : 224 kb/s
    7 y2 M4 g# k& E5 r/ M3 A6 XChannel(s) : 2 channels/ V+ O6 l$ y, ^- r- F6 V
    Channel layout : L R
    # f! t( p8 ^: R  [2 mSampling rate : 48.0 kHz' K1 e1 h3 t+ H5 I8 h2 P! x
    Frame rate : 31.250 FPS (1536 SPF)- R9 F5 }" y4 u( L* W
    Compression mode : Lossy1 P) n4 ^# F2 P/ j2 ?) R- ]( [
    Stream size : 168 MiB (2%)
    : d# n5 C* w) A7 A, M/ T/ z/ c4 sLanguage : English
    3 D' f* _, J+ G: Z) q% aService kind : Complete Main
    . C2 F! j! @  MDefault : Yes% W: c! W" s) l; ?: a
    Forced : No
    2 a# s( z8 {; G& t9 v. X# C- w
    & ^3 O! L( L' F8 ?; b0 j/ TText #14 ]2 U$ P: i' s0 s% d5 K/ u
    ID : 3; x. s$ ~# d& M, x
    Format : UTF-8, ~  B) Z' G# O
    Codec ID : S_TEXT/UTF8
    ; E) _9 }; {! z! R( M" i8 Z9 ?Codec ID/Info : UTF-8 Plain Text! y7 ~7 J  |5 O% b3 `0 C) @9 d
    Duration : 1 h 41 min
    # H" |2 T) H& XBit rate : 63 b/s
    8 {! ]4 ^6 s# C# t/ ]& CCount of elements : 1495
    ( c1 {' {; K' n( x8 lStream size : 46.9 KiB (0%)
    # s% D) T1 v1 Y; ~Language : English& t% [' r9 b' V; x3 D
    Default : No1 [( `0 y4 c2 U
    Forced : No/ a6 J. p4 E" h1 @- g$ W# h, o

    6 R; P; n" _* wText #25 Z9 G, z, ^9 h6 j) L& t- r+ ~/ I$ M
    ID : 4( Y- D/ j4 L  O3 r7 V
    Format : UTF-8) f* m+ ]8 Z; r# t
    Codec ID : S_TEXT/UTF86 m& x4 ?6 L. O& c& X8 {/ z( H
    Codec ID/Info : UTF-8 Plain Text
    6 ~* s' ~2 w- a( \) \Duration : 1 h 42 min
    6 @* y$ B$ e$ [" O: x/ A  EBit rate : 66 b/s9 U) Y+ e/ m9 r! l9 D
    Count of elements : 1604
    1 C- R2 B5 d7 q( b( v6 `* j9 aStream size : 50.4 KiB (0%)2 B! n8 E8 q; [$ y% b5 |
    Title : SDH: G2 j* E! b, N  X$ Q; K' f
    Language : English5 I+ r# \+ p5 p
    Default : No& W! v% X8 G3 ^
    Forced : No
    , T' x4 I( l. C1 N* r- z

    , K: y4 |0 d, g( V
    ; L2 s0 F) E% ]6 x# |( p& O
    . h' U) J. U& n2 \* o6 b' _! w9 y
    ' B" P/ z4 q% D* ?* B* E& Y
    * N# C" Y5 W# C0 Y3 X% x7 g& |# d5 D( ?5 a4 P  e

    $ c9 ^! w7 [% C) U

    本帖子中包含更多资源

    您需要 登录 才可以下载或查看,没有帐号?立即注册

    x
    回复

    使用道具 举报

    您需要登录后才可以回帖 登录 | 立即注册

    本版积分规则

    QQ|广告友链合作联系QQ:1374229927|小黑屋|威酷高清影视论坛

    GMT+8, 2020-6-3 23:11 , Processed in 0.019239 second(s), 15 queries , Gzip On, MemCached On.

    Powered by vkugq.net

    © 2008-2019 vkugq.net Inc.

    快速回复 返回顶部 返回列表