威酷高清论坛

 找回密码
 立即注册
查看: 40|回复: 0
收起左侧

[BD-Remux] 深海狂鲨3 Deep.Blue.Sea.3.2020.1080p.BluRay.REMUX.AVC.DTS-HD.MA.5.1-FGT 14.61GB

[复制链接]
  • TA的每日心情
    奋斗
    2020-5-24 21:44
  • 签到天数: 8 天

    [LV.3]偶尔看看II

     楼主| 卡西迪奥 发表于 2020-7-30 21:44:06 | 显示全部楼层 |阅读模式


    ◎译  名 深海狂鲨3
    ◎片  名 Deep Blue Sea 3
    ◎年  代 2020
    ◎产  地 美国
    ◎类  别 动作 / 科幻 / 恐怖
    ◎语  言 英语
    ◎上映日期 2020-07-28(美国)
    ◎IMDb链接 https://www.imdb.com/title/tt11946300
    ◎豆瓣评分 0/10 from 0 users
    ◎豆瓣链接 https://movie.douban.com/subject/35101514/
    ◎片  长 99分钟
    ◎导  演 约翰·波罗 John Pogue
    ◎编  剧 德克·布莱克曼 Dirk Blackman
    ◎主  演 纳撒尼尔·布佐尼克 Nathaniel Buzolic
          Emerson Brooks
          布伦·福斯特 Bren Foster
          苍丽娜 Reina Aoi
          Alex Bhat
          Siya Mayola
          Ernest St Claire
          DeVille Vannik
          Brashaad Mayweather
          坦妮娅·雷蒙德 Tania Raymonde
          欧内斯特·圣·克莱尔 Ernest St.Clair


    ◎标  签 2020 | 美国 | 线上

    ◎简  介

      Dr. Emma Collins and her team are spending their third summer on the island of Little Happy studying the effect of climate change on the great white sharks who come to the nearby nursery every year to give birth. Along with the last two inhabitants of this former fishing village, their peaceful life is disrupted when a "scientific" team led by her ex-boyfriend and marine biologist Richard show up looking for three bull sharks who we soon learn aren't just any bull sharks.
    Video
    ID : 1
    ID in the original source medium : 4113 (0x1011)
    Format : AVC
    Format/Info : Advanced Video Codec
    Format profile : High@L4.1
    Format settings : CABAC / 4 Ref Frames
    Format settings, CABAC : Yes
    Format settings, Reference frames : 4 frames
    Format settings, GOP : M=3, N=12
    Codec ID : V_MPEG4/ISO/AVC
    Duration : 1 h 40 min
    Bit rate mode : Variable
    Bit rate : 15.1 Mb/s
    Maximum bit rate : 38.0 Mb/s
    Width : 1 920 pixels
    Height : 1 080 pixels
    Display aspect ratio : 16:9
    Frame rate mode : Constant
    Frame rate : 23.976 (24000/1001/189150) FPS
    Color space : YUV
    Chroma subsampling : 4:2:0
    Bit depth : 8 bits
    Scan type : Progressive
    Bits/(Pixel*Frame) : 0.303
    Stream size : 10.5 GiB (72%)
    Title : Deep.Blue.Sea.3.2020.1080p.BluRay.REMUX.AVC.DTS-HD.MA.5.1-FGT
    Language : English
    Default : No
    Forced : No
    Original source medium : Blu-ray

    Audio #1
    ID : 2
    ID in the original source medium : 4352 (0x1100)
    Format : DTS XLL
    Format/Info : Digital Theater Systems
    Commercial name : DTS-HD Master Audio
    Codec ID : A_DTS
    Duration : 1 h 40 min
    Bit rate mode : Variable
    Bit rate : 4 262 kb/s
    Channel(s) : 6 channels
    Channel layout : C L R Ls Rs LFE
    Sampling rate : 48.0 kHz
    Frame rate : 93.750 FPS (512 SPF)
    Bit depth : 24 bits
    Compression mode : Lossless
    Stream size : 2.98 GiB (20%)
    Title : Deep.Blue.Sea.3.2020.1080p.BluRay.REMUX.AVC.DTS-HD.MA.5.1-FGT
    Language : English
    Default : Yes
    Forced : No
    Original source medium : Blu-ray

    Audio #2
    ID : 3
    ID in the original source medium : 4353 (0x1101)
    Format : AC-3
    Format/Info : Audio Coding 3
    Commercial name : Dolby Digital
    Codec ID : A_AC3
    Duration : 1 h 40 min
    Bit rate mode : Constant
    Bit rate : 640 kb/s
    Channel(s) : 6 channels
    Channel layout : L R C LFE Ls Rs
    Sampling rate : 48.0 kHz
    Frame rate : 31.250 FPS (1536 SPF)
    Bit depth : 16 bits
    Compression mode : Lossy
    Stream size : 459 MiB (3%)
    Title : Deep.Blue.Sea.3.2020.1080p.BluRay.REMUX.AVC.DTS-HD.MA.5.1-FGT
    Language : French
    Service kind : Complete Main
    Default : No
    Forced : No
    Original source medium : Blu-ray

    Audio #3
    ID : 4
    ID in the original source medium : 4354 (0x1102)
    Format : AC-3
    Format/Info : Audio Coding 3
    Commercial name : Dolby Digital
    Codec ID : A_AC3
    Duration : 1 h 40 min
    Bit rate mode : Constant
    Bit rate : 640 kb/s
    Channel(s) : 6 channels
    Channel layout : L R C LFE Ls Rs
    Sampling rate : 48.0 kHz
    Frame rate : 31.250 FPS (1536 SPF)
    Bit depth : 16 bits
    Compression mode : Lossy
    Stream size : 459 MiB (3%)
    Title : Deep.Blue.Sea.3.2020.1080p.BluRay.REMUX.AVC.DTS-HD.MA.5.1-FGT
    Language : German
    Service kind : Complete Main
    Default : No
    Forced : No
    Original source medium : Blu-ray

    Audio #4
    ID : 5
    ID in the original source medium : 4355 (0x1103)
    Format : AC-3
    Format/Info : Audio Coding 3
    Commercial name : Dolby Digital
    Codec ID : A_AC3
    Duration : 1 h 40 min
    Bit rate mode : Constant
    Bit rate : 192 kb/s
    Channel(s) : 2 channels
    Channel layout : L R
    Sampling rate : 48.0 kHz
    Frame rate : 31.250 FPS (1536 SPF)
    Bit depth : 16 bits
    Compression mode : Lossy
    Stream size : 138 MiB (1%)
    Title : Deep.Blue.Sea.3.2020.1080p.BluRay.REMUX.AVC.DTS-HD.MA.5.1-FGT
    Language : Spanish
    Service kind : Complete Main
    Default : No
    Forced : No
    Original source medium : Blu-ray

    Text #1
    ID : 6
    Format : UTF-8
    Codec ID : S_TEXT/UTF8
    Codec ID/Info : UTF-8 Plain Text
    Duration : 1 h 30 min
    Bit rate : 48 b/s
    Count of elements : 1054
    Stream size : 32.1 KiB (0%)
    Title : English-SRT
    Language : English
    Default : Yes
    Forced : No

    Text #2
    ID : 7
    ID in the original source medium : 4608 (0x1200)
    Format : PGS
    Muxing mode : zlib
    Codec ID : S_HDMV/PGS
    Codec ID/Info : Picture based subtitle format used on BDs/HD-DVDs
    Duration : 1 h 37 min
    Bit rate : 32.0 kb/s
    Count of elements : 2460
    Stream size : 22.3 MiB (0%)
    Title : English-PGS
    Language : English
    Default : No
    Forced : No
    Original source medium : Blu-ray

    Text #3
    ID : 8
    ID in the original source medium : 4609 (0x1201)
    Format : PGS
    Muxing mode : zlib
    Codec ID : S_HDMV/PGS
    Codec ID/Info : Picture based subtitle format used on BDs/HD-DVDs
    Duration : 1 h 38 min
    Bit rate : 26.2 kb/s
    Count of elements : 2088
    Stream size : 18.4 MiB (0%)
    Title : French-PGS
    Language : French
    Default : No
    Forced : No
    Original source medium : Blu-ray

    Text #4
    ID : 9
    ID in the original source medium : 4610 (0x1202)
    Format : PGS
    Muxing mode : zlib
    Codec ID : S_HDMV/PGS
    Codec ID/Info : Picture based subtitle format used on BDs/HD-DVDs
    Duration : 1 h 37 min
    Bit rate : 34.1 kb/s
    Count of elements : 2460
    Stream size : 23.8 MiB (0%)
    Title : German-PGS
    Language : German
    Default : No
    Forced : No
    Original source medium : Blu-ray

    Text #5
    ID : 10
    ID in the original source medium : 4611 (0x1203)
    Format : PGS
    Muxing mode : zlib
    Codec ID : S_HDMV/PGS
    Codec ID/Info : Picture based subtitle format used on BDs/HD-DVDs
    Duration : 1 h 38 min
    Bit rate : 28.2 kb/s
    Count of elements : 2090
    Stream size : 19.9 MiB (0%)
    Title : Spanish-PGS
    Language : Spanish
    Default : No
    Forced : No
    Original source medium : Blu-ray

    Text #6
    ID : 11
    ID in the original source medium : 4612 (0x1204)
    Format : PGS
    Muxing mode : zlib
    Codec ID : S_HDMV/PGS
    Codec ID/Info : Picture based subtitle format used on BDs/HD-DVDs
    Duration : 1 h 38 min
    Bit rate : 24.2 kb/s
    Count of elements : 2068
    Stream size : 17.0 MiB (0%)
    Title : Danish-PGS
    Language : Danish
    Default : No
    Forced : No
    Original source medium : Blu-ray

    Text #7
    ID : 12
    ID in the original source medium : 4613 (0x1205)
    Format : PGS
    Muxing mode : zlib
    Codec ID : S_HDMV/PGS
    Codec ID/Info : Picture based subtitle format used on BDs/HD-DVDs
    Duration : 1 h 38 min
    Bit rate : 26.8 kb/s
    Count of elements : 2076
    Stream size : 18.8 MiB (0%)
    Title : Finnish-PGS
    Language : Finnish
    Default : No
    Forced : No
    Original source medium : Blu-ray

    Text #8
    ID : 13
    ID in the original source medium : 4614 (0x1206)
    Format : PGS
    Muxing mode : zlib
    Codec ID : S_HDMV/PGS
    Codec ID/Info : Picture based subtitle format used on BDs/HD-DVDs
    Duration : 1 h 38 min
    Bit rate : 25.2 kb/s
    Count of elements : 2086
    Stream size : 17.7 MiB (0%)
    Title : Norwegian-PGS
    Language : Norwegian
    Default : No
    Forced : No
    Original source medium : Blu-ray

    Text #9
    ID : 14
    ID in the original source medium : 4615 (0x1207)
    Format : PGS
    Muxing mode : zlib
    Codec ID : S_HDMV/PGS
    Codec ID/Info : Picture based subtitle format used on BDs/HD-DVDs
    Duration : 1 h 38 min
    Bit rate : 28.0 kb/s
    Count of elements : 2044
    Stream size : 19.7 MiB (0%)
    Title : Swedish-PGS
    Language : Swedish
    Default : No
    Forced : No
    Original source medium : Blu-ray

    Text #10
    ID : 15
    ID in the original source medium : 4616 (0x1208)
    Format : PGS
    Muxing mode : zlib
    Codec ID : S_HDMV/PGS
    Codec ID/Info : Picture based subtitle format used on BDs/HD-DVDs
    Duration : 57 min 41 s
    Bit rate : 107 b/s
    Count of elements : 4
    Stream size : 45.6 KiB (0%)
    Title : French-FORCED-PGS
    Language : French
    Default : No
    Forced : No
    Original source medium : Blu-ray

    Text #11
    ID : 16
    ID in the original source medium : 4617 (0x1209)
    Format : PGS
    Muxing mode : zlib
    Codec ID : S_HDMV/PGS
    Codec ID/Info : Picture based subtitle format used on BDs/HD-DVDs
    Duration : 57 min 41 s
    Bit rate : 100 b/s
    Count of elements : 4
    Stream size : 42.3 KiB (0%)
    Title : Spanish-FORCED-PGS
    Language : Spanish
    Default : No
    Forced : No
    Original source medium : Blu-ray

    Text #12
    ID : 17
    ID in the original source medium : 4618 (0x120A)
    Format : PGS
    Muxing mode : zlib
    Codec ID : S_HDMV/PGS
    Codec ID/Info : Picture based subtitle format used on BDs/HD-DVDs
    Duration : 2 s 106 ms
    Bit rate : 56.1 kb/s
    Count of elements : 2
    Stream size : 14.4 KiB (0%)
    Title : German-FORCED-PGS
    Language : German
    Default : No
    Forced : No
    Original source medium : Blu-ray

    Menu
    00:00:00.000 : en:Chapter 01
    00:09:50.006 : en:Chapter 02
    00:19:15.154 : en:Chapter 03
    00:28:50.270 : en:Chapter 04
    00:38:06.033 : en:Chapter 05
    00:45:09.289 : en:Chapter 06
    00:54:28.890 : en:Chapter 07
    01:04:14.141 : en:Chapter 08
    01:14:12.406 : en:Chapter 09
    01:23:10.819 : en:Chapter 10
    01:32:48.229 : en:Chapter 11







    本帖子中包含更多资源

    您需要 登录 才可以下载或查看,没有帐号?立即注册

    x
    回复

    使用道具 举报

    您需要登录后才可以回帖 登录 | 立即注册

    本版积分规则

    QQ|广告友链合作联系QQ:1374229927|小黑屋|威酷高清影视论坛

    GMT+8, 2020-8-8 10:33 , Processed in 0.020962 second(s), 10 queries , Gzip On, MemCached On.

    Powered by vkugq.net

    © 2008-2019 vkugq.net Inc.

    快速回复 返回顶部 返回列表