威酷高清论坛

 找回密码
 立即注册
查看: 244|回复: 3
收起左侧

[BD-720P] 致命弯道/致命弯道7 Wrong.Turn.2021.720p.BluRay.x264.DTS-FGT 5.40GB

[复制链接]
  • TA的每日心情
    慵懒
    2021-10-28 22:09
  • 签到天数: 18 天

    [LV.4]偶尔看看III

    卡西迪奥 发表于 2021-2-16 21:13:51 | 显示全部楼层 |阅读模式


    ◎译  名 致命弯道/致命弯道7/致命弯道重启版
    ◎片  名 Wrong Turn
    ◎年  代 2021
    ◎产  地 德国
    ◎类  别 惊悚 / 恐怖
    ◎语  言 英语
    ◎上映日期 2021-01-26(美国)
    ◎IMDb评分 5.4/10 from 3160 users
    ◎IMDb链接 https://www.imdb.com/title/tt9110170/
    ◎豆瓣评分 6.0/10 from 1042 users
    ◎豆瓣链接 https://movie.douban.com/subject/30352897/
    ◎片  长 110分钟
    ◎导  演 迈克·P·纳尔逊 Mike P. Nelson
    ◎编  剧 阿兰·B·麦克埃尔罗伊 Alan B. McElroy
    ◎主  演 夏洛特·维嘉 Charlotte Vega
          艾玛·杜蒙特 Emma Dumont
          马修·莫迪恩 Matthew Modine
          黛茜·海德 Daisy Head
          比尔·萨奇 Bill Sage
          达米安·马菲 Damian Maffei
          迪伦·麦蒂 Dylan McTee
          科里·斯科特·艾伦 Cory Scott Allen
          阿德里安·法维拉 Adrian Favela
          大卫·哈奇森 David Hutchison

    ◎标  签 恐怖 | 2021 | *恐怖 | 美国电影 | 惊悚 | 翻拍 | 美国 | #系列

    ◎简  介

      一群亲密的好朋友决定前往西弗吉尼亚州徒步旅行,却意外遇到在对陌生人不友好的部落,这是一个已经在山里居住了数百年的部落。面对好朋友相继遇难,女主角利用自己的勇敢和智慧保护自己,最终虎口脱险的故事。
    Video
    ID : 1
    Format : AVC
    Format/Info : Advanced Video Codec
    Format profile : High@L4.1
    Format settings : CABAC / 4 Ref Frames
    Format settings, CABAC : Yes
    Format settings, Reference frames : 4 frames
    Codec ID : V_MPEG4/ISO/AVC
    Duration : 1 h 50 min
    Bit rate : 5 500 kb/s
    Width : 1 280 pixels
    Height : 536 pixels
    Display aspect ratio : 2.40:1
    Frame rate mode : Constant
    Frame rate : 23.976 (24000/1001/189150) FPS
    Color space : YUV
    Chroma subsampling : 4:2:0
    Bit depth : 8 bits
    Scan type : Progressive
    Bits/(Pixel*Frame) : 0.334
    Stream size : 4.23 GiB (78%)
    Writing library : x264 core 148 r2748 97eaef2
    Encoding settings : cabac=1 / ref=4 / deblock=1:-2:-2 / analyse=0x3:0x113 / me=umh / subme=9 / psy=1 / psy_rd=1.00:0.15 / mixed_ref=1 / me_range=16 / chroma_me=1 / trellis=2 / 8x8dct=1 / cqm=0 / deadzone=21,11 / fast_pskip=1 / chroma_qp_offset=-3 / threads=24 / lookahead_threads=3 / sliced_threads=0 / nr=0 / decimate=1 / interlaced=0 / bluray_compat=0 / constrained_intra=0 / bframes=3 / b_pyramid=2 / b_adapt=1 / b_bias=0 / direct=3 / weightb=1 / open_gop=0 / weightp=2 / keyint=250 / keyint_min=25 / scenecut=40 / intra_refresh=0 / rc_lookahead=50 / rc=2pass / mbtree=1 / bitrate=5500 / ratetol=1.0 / qcomp=0.60 / qpmin=0 / qpmax=69 / qpstep=4 / cplxblur=20.0 / qblur=0.5 / vbv_maxrate=31250 / vbv_bufsize=31250 / nal_hrd=none / filler=0 / ip_ratio=1.40 / aq=1:1.00
    Language : English
    Default : Yes
    Forced : No

    Audio
    ID : 2
    Format : DTS
    Format/Info : Digital Theater Systems
    Codec ID : A_DTS
    Duration : 1 h 50 min
    Bit rate mode : Constant
    Bit rate : 1 509 kb/s
    Channel(s) : 6 channels
    Channel layout : C L R Ls Rs LFE
    Sampling rate : 48.0 kHz
    Frame rate : 93.750 FPS (512 SPF)
    Bit depth : 24 bits
    Compression mode : Lossy
    Stream size : 1.16 GiB (22%)
    Title : DTS 5.1
    Language : English
    Default : Yes
    Forced : No

    Text
    ID : 3
    Format : UTF-8
    Codec ID : S_TEXT/UTF8
    Codec ID/Info : UTF-8 Plain Text
    Duration : 1 h 46 min
    Bit rate : 44 b/s
    Count of elements : 1296
    Stream size : 34.9 KiB (0%)
    Title : English-SRT
    Language : English
    Default : Yes
    Forced : No

    Menu
    00:00:00.000 : en:Chapter 01
    00:05:22.364 : en:Chapter 02
    00:14:39.170 : en:Chapter 03
    00:20:43.826 : en:Chapter 04
    00:25:05.129 : en:Chapter 05
    00:32:36.538 : en:Chapter 06
    00:39:30.952 : en:Chapter 07
    00:44:12.775 : en:Chapter 08
    00:48:35.329 : en:Chapter 09
    00:58:29.381 : en:Chapter 10
    01:06:07.172 : en:Chapter 11
    01:14:34.970 : en:Chapter 12
    01:22:48.130 : en:Chapter 13
    01:29:33.535 : en:Chapter 14
    01:38:13.346 : en:Chapter 15
    01:43:54.061 : en:Chapter 16





    本帖子中包含更多资源

    您需要 登录 才可以下载或查看,没有帐号?立即注册

    x
    回复

    使用道具 举报

  • TA的每日心情
    难过
    昨天 22:06
  • 签到天数: 224 天

    [LV.7]常住居民III

    wybin 发表于 2021-2-16 22:29:53 | 显示全部楼层
    期待很久。谢谢楼主
    回复 支持 反对

    使用道具 举报

  • TA的每日心情
    开心
    2021-3-7 10:08
  • 签到天数: 1 天

    [LV.1]初来乍到

    tak1468 发表于 2021-3-7 10:46:36 | 显示全部楼层
    谢谢楼主!谢谢楼主!
    回复 支持 反对

    使用道具 举报

  • TA的每日心情
    奋斗
    6 天前
  • 签到天数: 75 天

    [LV.6]常住居民II

    Mr.Geng 发表于 2021-10-19 17:46:35 | 显示全部楼层
    挺刺激的一系列,推荐,谢谢分享
    回复 支持 反对

    使用道具 举报

    您需要登录后才可以回帖 登录 | 立即注册

    本版积分规则

    QQ|广告友链合作联系QQ:1374229927|小黑屋|威酷高清影视论坛

    GMT+8, 2021-11-28 00:42 , Processed in 0.029897 second(s), 11 queries , Gzip On, MemCached On.

    Powered by Discuz! X3.4

    Copyright © 2001-2021, Tencent Cloud.

    快速回复 返回顶部 返回列表