威酷高清论坛

 找回密码
 立即注册
查看: 23|回复: 0
收起左侧

[WEB-4K] 幽灵之城 City.of.Ghosts.2017.2160p.AMZN.WEB-DL.x265.8bit.SDR.DTS-HD.MA.5.1-SWTYBLZ 11.07GB

[复制链接]
  • TA的每日心情

    2020-11-15 19:40
  • 签到天数: 12 天

    [LV.3]偶尔看看II

    卡西迪奥 发表于 2021-2-23 08:30:05 | 显示全部楼层 |阅读模式


    ◎译  名 幽灵之城/Miasto duchów
    ◎片  名 City of Ghosts
    ◎年  代 2017
    ◎产  地 美国
    ◎类  别 纪录片
    ◎语  言 英语
    ◎上映日期 2017-01-24(圣丹斯电影节) / 2017-07-21(英国)
    ◎IMDb评分 7.4/10 from 3528 users
    ◎IMDb链接 https://www.imdb.com/title/tt6333056/
    ◎豆瓣评分 8.0/10 from 259 users
    ◎豆瓣链接 https://movie.douban.com/subject/26928127/
    ◎片  长 92分钟
    ◎导  演 马修·海涅曼 Matthew Heineman
    ◎编  剧 马修·海涅曼 Matthew Heineman
    ◎主  演 阿布·巴克尔·巴格达迪 Abu Bakr Al-Baghdadi

    ◎标  签 纪录片 | 美国 | 2017 | 叙利亚 | 政治 | 恐怖分子 | Documentary | 美国电影

    ◎简  介

      This is the story of a new type of warfare: a battle over ideas, over hearts and minds, over clicks and views.
      
      《幽灵城》(City of Ghosts) 导演:马修·海涅曼(Matthew Heineman) 入围2017年圣丹斯电影节

    ◎获奖情况

      第71届英国电影学院奖 ?(2018)
      电影奖最佳纪录片(提名)
      
      第33届圣丹斯电影节 ?(2017)
      评审团大奖纪录片(提名) 马修·海涅曼
      
      第70届美国导演工会奖 ?(2018)
      最佳纪录片导演 马修·海涅曼
      
      第29届美国制片人工会奖 ?(2018)
      最佳纪录片制片人奖(提名)
      
      第22届金卫星奖 ?(2018)
      电影部门最佳纪录片(提名)
      
      第30届芝加哥影评人协会奖 ?(2017)
      最佳纪录片(提名)
    Video
    ID : 1
    Format : HEVC
    Format/Info : High Efficiency Video Coding
    Format profile : Main@L5@Main
    Codec ID : V_MPEGH/ISO/HEVC
    Duration : 1 h 32 min
    Bit rate : 12.9 Mb/s
    Width : 3 840 pixels
    Height : 2 160 pixels
    Display aspect ratio : 16:9
    Frame rate mode : Constant
    Frame rate : 23.976 (24000/1001/189150) FPS
    Standard : NTSC
    Color space : YUV
    Chroma subsampling : 4:2:0
    Bit depth : 8 bits
    Bits/(Pixel*Frame) : 0.065
    Stream size : 8.29 GiB (75%)
    Writing library : x265 2.9_elemental9e0607aa5b6f:[Linux][GCC 4.8.5][64 bit] 8bit+10bit+12bit
    Encoding settings : cpuid=1111039 / frame-threads=2 / wpp / no-pmode / no-pme / psnr / ssim / log-level=2 / csv / csv-log-level=2 / input-csp=1 / input-res=3840x2160 / interlace=0 / total-frames=0 / level-idc=50 / high-tier=1 / uhd-BD=0 / ref=5 / no-allow-non-conformance / no-repeat-headers / annexb / no-aud / no-hrd / info / hash=0 / no-temporal-layers / no-open-gop / min-keyint=61 / keyint=120 / gop-lookahead=0 / bframes=8 / b-adapt=2 / b-pyramid / bframe-bias=0 / rc-lookahead=120 / lookahead-slices=4 / scenecut=0 / radl=0 / no-intra-refresh / ctu=64 / min-cu-size=8 / rect / amp / max-tu-size=32 / tu-inter-depth=4 / tu-intra-depth=4 / limit-tu=4 / rdoq-level=2 / dynamic-rd=0.00 / no-ssim-rd / signhide / tskip / nr-intra=100 / nr-inter=600 / no-constrained-intra / strong-intra-smoothing / max-merge=3 / limit-refs=3 / limit-modes / me=3 / subme=3 / merange=57 / temporal-mvp / weightp / weightb / no-analyze-src-pics / deblock=0:0 / no-sao / no-sao-non-deblock / rd=4 / no-early-skip / no-rskip / no-fast-intra / tskip-fast / no-cu-lossless / b-intra / no-splitrd-skip / rdpenalty=0 / psy-rd=4.00 / psy-rdoq=10.00 / no-rd-refine / no-lossless / cbqpoffs=0 / crqpoffs=0 / rc=crf / crf=25.0 / qcomp=0.60 / qpstep=1 / stats-write=0 / stats-read=0 / vbv-maxrate=15000 / vbv-bufsize=20000 / vbv-init=0.9 / crf-max=0.0 / crf-min=0.0 / ipratio=1.10 / pbratio=1.00 / aq-mode=0 / aq-strength=1.50 / no-cutree / zone-count=0 / no-strict-cbr / qg-size=32 / rc-grain / qpmax=69 / qpmin=0 / const-vbv / sar=1 / overscan=0 / videoformat=2 / range=0 / colorprim=1 / transfer=1 / colormatrix=1 / chromaloc=0 / display-window=0 / max-cll=0,0 / min-luma=0 / max-luma=255 / log2-max-poc-lsb=8 / vui-timing-info / vui-hrd-info / slices=1 / opt-qp-pps / no-opt-ref-list-length-pps / no-multi-pass-opt-rps / scenecut-bias=0.05 / no-opt-cu-delta-qp / no-aq-motion / no-hdr / no-hdr-opt / no-dhdr10-opt / no-idr-recovery-sei / analysis-reuse-level=5 / scale-factor=0 / refine-intra=0 / refine-inter=0 / refine-mv=0 / no-limit-sao / ctu-info=0 / no-lowpass-dct / refine-mv-type=0 / copy-pic=1 / max-ausize-factor=1.0 / no-dynamic-refine / no-single-sei
    Default : Yes
    Forced : No
    Color range : Limited
    Color primaries : BT.709
    Transfer characteristics : BT.709
    Matrix coefficients : BT.709

    Audio #1
    ID : 2
    Format : DTS XLL
    Format/Info : Digital Theater Systems
    Commercial name : DTS-HD Master Audio
    Codec ID : A_DTS
    Duration : 1 h 32 min
    Bit rate mode : Variable
    Bit rate : 3 679 kb/s
    Channel(s) : 6 channels
    Channel layout : C L R Ls Rs LFE
    Sampling rate : 48.0 kHz
    Frame rate : 93.750 FPS (512 SPF)
    Bit depth : 24 bits
    Compression mode : Lossless
    Delay relative to video : 2 ms
    Stream size : 2.37 GiB (21%)
    Title : DTS-HD MA 5.1
    Language : English
    Default : Yes
    Forced : No

    Audio #2
    ID : 3
    Format : E-AC-3
    Format/Info : Enhanced AC-3
    Commercial name : Dolby Digital Plus
    Codec ID : A_EAC3
    Duration : 1 h 32 min
    Bit rate mode : Constant
    Bit rate : 640 kb/s
    Channel(s) : 6 channels
    Channel layout : L R C LFE Ls Rs
    Sampling rate : 48.0 kHz
    Frame rate : 31.250 FPS (1536 SPF)
    Compression mode : Lossy
    Stream size : 422 MiB (4%)
    Title : DDP 5.1
    Language : English
    Service kind : Complete Main
    Default : No
    Forced : No

    Text #1
    ID : 4
    Format : UTF-8
    Codec ID : S_TEXT/UTF8
    Codec ID/Info : UTF-8 Plain Text
    Duration : 1 h 31 min
    Bit rate : 13 b/s
    Count of elements : 453
    Stream size : 8.93 KiB (0%)
    Title : English-SRT
    Language : English
    Default : Yes
    Forced : No

    Text #2
    ID : 5
    Format : PGS
    Muxing mode : zlib
    Codec ID : S_HDMV/PGS
    Codec ID/Info : Picture based subtitle format used on BDs/HD-DVDs
    Duration : 1 h 31 min
    Bit rate : 7 150 b/s
    Count of elements : 1033
    Stream size : 4.67 MiB (0%)
    Title : English-PGS
    Language : English
    Default : No
    Forced : No

    Menu
    00:00:00.000 : :Chapter 01
    00:09:53.468 : :Chapter 02
    00:18:55.259 : :Chapter 03
    00:27:37.990 : :Chapter 04
    00:37:48.057 : :Chapter 05
    00:45:01.324 : :Chapter 06
    00:49:46.609 : :Chapter 07
    01:00:00.764 : :Chapter 08
    01:04:55.850 : :Chapter 09
    01:11:32.455 : :Chapter 10
    01:19:45.531 : :Chapter 11
    01:27:59.274 : :Chapter 12






    本帖子中包含更多资源

    您需要 登录 才可以下载或查看,没有帐号?立即注册

    x
    回复

    使用道具 举报

    您需要登录后才可以回帖 登录 | 立即注册

    本版积分规则

    QQ|广告友链合作联系QQ:1374229927|小黑屋|威酷高清影视论坛

    GMT+8, 2021-3-8 13:44 , Processed in 0.016590 second(s), 12 queries , Gzip On, MemCached On.

    Powered by Discuz! X3.4

    Copyright © 2001-2020, Tencent Cloud.

    快速回复 返回顶部 返回列表