威酷高清论坛

 找回密码
 立即注册
查看: 11|回复: 0
收起左侧

[WEB-720P] 雷电之魂/雷霆之魂 Thunder.Soul.2010.720p.WEB.h264-OPUS 3.50GB

[复制链接]
  • TA的每日心情

    2020-11-15 19:40
  • 签到天数: 12 天

    [LV.3]偶尔看看II

    卡西迪奥 发表于 2021-2-23 08:35:04 | 显示全部楼层 |阅读模式


    ◎译  名 雷电之魂/雷霆之魂/雷霆灵魂同学会(台)
    ◎片  名 Thunder Soul
    ◎年  代 2010
    ◎产  地 美国
    ◎类  别 纪录片 / 音乐
    ◎语  言 英语
    ◎上映日期 2010
    ◎IMDb评分 7.5/10 from 470 users
    ◎IMDb链接 https://www.imdb.com/title/tt1611180/
    ◎豆瓣评分 8.8/10 from 43 users
    ◎豆瓣链接 https://movie.douban.com/subject/4729485/
    ◎片  长 83分钟
    ◎导  演 Mark Landsman

    ◎标  签 纪录片 | 音乐 | 美国 | Jazz | 2010 | Documentary | 2010s | 美国电影

    ◎简  介

      这个组建于70年代的乐队起名“雷电之魂”,是一帮高中生组建的黑人乐队,他们乐观自信,但是最大的共同点则是热爱音乐。在70年代那个潮流瞬息万变的时代,他们的乐队只存在于高中时期。然而30年后,乐队成员再次聚首,所有人拿起尘封已久的乐器,希望能够找回当年的音乐和记忆。他们能否风采依旧,演绎出当年风靡一时的放克乐,跟随纪录光影,我们见证了一个乐队的重生。
    Video
    ID : 1
    Format : AVC
    Format/Info : Advanced Video Codec
    Format profile : High@L3.1
    Format settings : CABAC / 4 Ref Frames
    Format settings, CABAC : Yes
    Format settings, Reference frames : 4 frames
    Codec ID : V_MPEG4/ISO/AVC
    Duration : 1 h 23 min
    Bit rate mode : Constant
    Bit rate : 5 346 kb/s
    Nominal bit rate : 6 000 kb/s
    Width : 1 280 pixels
    Height : 720 pixels
    Display aspect ratio : 16:9
    Frame rate mode : Constant
    Frame rate : 23.976 (24000/1001/189150) FPS
    Color space : YUV
    Chroma subsampling : 4:2:0
    Bit depth : 8 bits
    Scan type : Progressive
    Bits/(Pixel*Frame) : 0.242
    Stream size : 3.12 GiB (89%)
    Default : Yes
    Forced : No
    Color range : Limited
    Color primaries : BT.709
    Transfer characteristics : BT.709
    Matrix coefficients : BT.709

    Audio
    ID : 2
    Format : E-AC-3
    Format/Info : Enhanced AC-3
    Commercial name : Dolby Digital Plus
    Codec ID : A_EAC3
    Duration : 1 h 23 min
    Bit rate mode : Constant
    Bit rate : 640 kb/s
    Channel(s) : 6 channels
    Channel layout : L R C LFE Ls Rs
    Sampling rate : 48.0 kHz
    Frame rate : 31.250 FPS (1536 SPF)
    Compression mode : Lossy
    Stream size : 383 MiB (11%)
    Title : English
    Language : English
    Service kind : Complete Main
    Default : Yes
    Forced : No

    Text
    ID : 3
    Format : UTF-8
    Codec ID : S_TEXT/UTF8
    Codec ID/Info : UTF-8 Plain Text
    Duration : 1 h 23 min
    Bit rate : 91 b/s
    Count of elements : 1599
    Stream size : 55.9 KiB (0%)
    Title : English (SDH)
    Language : English
    Default : No
    Forced : No





    本帖子中包含更多资源

    您需要 登录 才可以下载或查看,没有帐号?立即注册

    x
    回复

    使用道具 举报

    您需要登录后才可以回帖 登录 | 立即注册

    本版积分规则

    QQ|广告友链合作联系QQ:1374229927|小黑屋|威酷高清影视论坛

    GMT+8, 2021-3-8 13:31 , Processed in 0.015765 second(s), 12 queries , Gzip On, MemCached On.

    Powered by Discuz! X3.4

    Copyright © 2001-2020, Tencent Cloud.

    快速回复 返回顶部 返回列表