威酷高清论坛

 找回密码
 立即注册
查看: 17|回复: 0
收起左侧

[剧情] 甜蜜的事/甜蜜出走 Sweet.Thing.2020.1080p.WEB-DL.DD2.0.H264-FGT 3.41GB

[复制链接]
  • TA的每日心情

    2020-11-15 19:40
  • 签到天数: 12 天

    [LV.3]偶尔看看II



    ◎译  名 甜蜜的事/甜蜜出走(台)/甜蜜的事物
    ◎片  名 Sweet Thing
    ◎年  代 2020
    ◎产  地 美国
    ◎类  别 剧情
    ◎语  言 英语
    ◎上映日期 2020-02-25(柏林电影节)
    ◎IMDb评分 7.7/10 from 450 users
    ◎IMDb链接 https://www.imdb.com/title/tt11685322/
    ◎豆瓣评分 7.6/10 from 166 users
    ◎豆瓣链接 https://movie.douban.com/subject/34938127/
    ◎片  长 91分钟
    ◎导  演 亚历山大·洛克威尔 Alexandre Rockwell
    ◎编  剧 亚历山大·洛克威尔 Alexandre Rockwell

    ◎标  签 美国 | 2020 | 剧情 | 公路 | 成长 | 电影 | 文艺 | 美国电影

    ◎简  介

      影片讲述马萨诸塞州新贝德福德两个孩子的生活,他们与母亲还有母亲的男朋友在海边别墅度过了一个多事的夏天。15岁女孩比莉,把歌手比莉·荷莉戴视为仙女教母一般的存在。为了照顾11岁的弟弟尼克,比莉不得想方设法应对生活中不断变化的挑战。在这个过程中,他们遇到另一个少年,于是便从家里跑了出来,三人结伴开始了远离父母的“逃亡之旅”。他们在新贝德福德的船只和铁轨间发现了自由和魅力。当他们闯入一间豪宅时,他们幻想起了奢华的生活,并把这种富裕的气息带入了他们的冒险。

    ◎获奖情况

      第70届柏林国际电影节 ?(2020)
      新生代儿童单元最佳影片 亚历山大·洛克威尔
      
      第4届平遥国际电影展 ?(2020)
      首映单元最受欢迎影片 亚历山大·洛克威尔
    Video
    ID : 1
    Format : AVC
    Format/Info : Advanced Video Codec
    Format profile : High@L4
    Format settings : CABAC / 4 Ref Frames
    Format settings, CABAC : Yes
    Format settings, Reference frames : 4 frames
    Codec ID : V_MPEG4/ISO/AVC
    Duration : 1 h 30 min
    Bit rate : 5 191 kb/s
    Width : 1 916 pixels
    Height : 1 032 pixels
    Display aspect ratio : 1.85:1
    Frame rate mode : Constant
    Frame rate : 24.000 FPS
    Color space : YUV
    Chroma subsampling : 4:2:0
    Bit depth : 8 bits
    Scan type : Progressive
    Bits/(Pixel*Frame) : 0.109
    Stream size : 3.28 GiB (96%)
    Language : English
    Default : Yes
    Forced : No
    Color range : Limited
    Color primaries : BT.709
    Transfer characteristics : BT.709
    Matrix coefficients : BT.709

    Audio
    ID : 2
    Format : AC-3
    Format/Info : Audio Coding 3
    Commercial name : Dolby Digital
    Codec ID : A_AC3
    Duration : 1 h 30 min
    Bit rate mode : Constant
    Bit rate : 192 kb/s
    Channel(s) : 2 channels
    Channel layout : L R
    Sampling rate : 48.0 kHz
    Frame rate : 31.250 FPS (1536 SPF)
    Compression mode : Lossy
    Stream size : 124 MiB (4%)
    Language : English
    Service kind : Complete Main
    Default : Yes
    Forced : No

    Menu
    00:00:00.000 : en:1
    00:14:06.708 : en:2
    00:28:40.958 : en:3
    00:45:03.499 : en:4
    00:59:52.582 : en:5
    01:13:24.414 : en:6
    01:27:38.289 : en:7






    本帖子中包含更多资源

    您需要 登录 才可以下载或查看,没有帐号?立即注册

    x
    回复

    使用道具 举报

    您需要登录后才可以回帖 登录 | 立即注册

    本版积分规则

    QQ|广告友链合作联系QQ:1374229927|小黑屋|威酷高清影视论坛

    GMT+8, 2021-2-28 02:44 , Processed in 0.017669 second(s), 12 queries , Gzip On, MemCached On.

    Powered by Discuz! X3.4

    Copyright © 2001-2020, Tencent Cloud.

    快速回复 返回顶部 返回列表