威酷高清论坛

 找回密码
 立即注册
查看: 13|回复: 0
收起左侧

[WEB-720P] 我的山达基电影/Louis Theroux:山达基大揭秘 My.Scientology.Movie.2015.iNTERNAL.720p.WEB.h264-OPUS 4.44GB

[复制链接]
  • TA的每日心情

    2020-11-15 19:40
  • 签到天数: 12 天

    [LV.3]偶尔看看II



    ◎译  名 我的山达基电影/Louis Theroux:山达基大揭秘
    ◎片  名 My Scientology Movie
    ◎年  代 2015
    ◎产  地 英国
    ◎类  别 纪录片
    ◎语  言 英语
    ◎上映日期 2015-10-14
    ◎IMDb评分 6.7/10 from 12091 users
    ◎IMDb链接 https://www.imdb.com/title/tt5111874/
    ◎豆瓣评分 7.5/10 from 84 users
    ◎豆瓣链接 https://movie.douban.com/subject/26633279/
    ◎片  长 90分钟
    ◎导  演 约翰·道尔 John Dower
    ◎编  剧 约翰·道尔 John Dower / 路易斯·泰鲁 Louis Theroux
    ◎主  演 路易斯·泰鲁 Louis Theroux

    ◎标  签 纪录片 | 英国 | BBC | 2015 | 美国 | 山达基教 | Documentary | 美国电影

    ◎简  介

      新闻人Louis Theroux将对山达基进行大揭秘,当中又会遭遇到什么惊险一幕?
    Video
    ID : 1
    Format : AVC
    Format/Info : Advanced Video Codec
    Format profile : High@L3.1
    Format settings : CABAC / 4 Ref Frames
    Format settings, CABAC : Yes
    Format settings, Reference frames : 4 frames
    Format settings, GOP : M=4, N=48
    Codec ID : V_MPEG4/ISO/AVC
    Duration : 1 h 39 min
    Bit rate mode : Constant
    Bit rate : 6 000 kb/s
    Width : 1 280 pixels
    Height : 720 pixels
    Display aspect ratio : 16:9
    Frame rate mode : Constant
    Frame rate : 23.976 (24000/1001/189150) FPS
    Color space : YUV
    Chroma subsampling : 4:2:0
    Bit depth : 8 bits
    Scan type : Progressive
    Bits/(Pixel*Frame) : 0.272
    Stream size : 4.00 GiB (90%)
    Language : English
    Default : Yes
    Forced : No
    Color range : Limited
    Color primaries : BT.709
    Transfer characteristics : BT.709
    Matrix coefficients : BT.709

    Audio
    ID : 2
    Format : E-AC-3
    Format/Info : Enhanced AC-3
    Commercial name : Dolby Digital Plus
    Codec ID : A_EAC3
    Duration : 1 h 39 min
    Bit rate mode : Constant
    Bit rate : 640 kb/s
    Channel(s) : 6 channels
    Channel layout : L R C LFE Ls Rs
    Sampling rate : 48.0 kHz
    Frame rate : 31.250 FPS (1536 SPF)
    Compression mode : Lossy
    Stream size : 455 MiB (10%)
    Title : English
    Language : English
    Service kind : Complete Main
    Default : Yes
    Forced : No

    Text
    ID : 3
    Format : UTF-8
    Codec ID : S_TEXT/UTF8
    Codec ID/Info : UTF-8 Plain Text
    Duration : 1 h 36 min
    Bit rate : 97 b/s
    Count of elements : 1892
    Stream size : 68.7 KiB (0%)
    Title : English (SDH)
    Language : English
    Default : No
    Forced : No







    本帖子中包含更多资源

    您需要 登录 才可以下载或查看,没有帐号?立即注册

    x
    回复

    使用道具 举报

    您需要登录后才可以回帖 登录 | 立即注册

    本版积分规则

    QQ|广告友链合作联系QQ:1374229927|小黑屋|威酷高清影视论坛

    GMT+8, 2021-2-28 03:32 , Processed in 0.016557 second(s), 12 queries , Gzip On, MemCached On.

    Powered by Discuz! X3.4

    Copyright © 2001-2020, Tencent Cloud.

    快速回复 返回顶部 返回列表