威酷高清论坛

 找回密码
 立即注册
查看: 16|回复: 1
收起左侧

[剧情] 小孩大联盟剧场版/邻居小屁孩儿 Codename.Kids.Next.Door.Operation.Z.E.R.O.2006.1080p.WEBRip.x264-RARBG 1.39GB

[复制链接]
  • TA的每日心情

    2020-11-15 19:40
  • 签到天数: 12 天

    [LV.3]偶尔看看II

    卡西迪奥 发表于 2021-2-23 10:12:53 | 显示全部楼层 |阅读模式


    ◎译  名 小孩大联盟剧场版/邻居小屁孩儿
    ◎片  名 Codename: Kids Next Door - Operation Z.E.R.O.
    ◎年  代 2006
    ◎产  地 美国
    ◎类  别 动画
    ◎语  言 英语
    ◎上映日期 2006
    ◎IMDb评分 7.6/10 from 890 users
    ◎IMDb链接 https://www.imdb.com/title/tt0837113/
    ◎豆瓣评分 /10 from 0 users
    ◎豆瓣链接 https://movie.douban.com/subject/5203005/
    ◎片  长 74分钟(美国)
    ◎导  演 Tom Warburton
    ◎编  剧 Mo Willems / Tom Warburton
    ◎主  演 Janice Kawaye
          汤姆·肯尼 Tom Kenny
          Candi Milo
          内尔·洛斯 Neil Ross
          克里·萨莫 Cree Summer
          戴夫·维滕博格 Dave Wittenberg
          蕾切尔·麦克法兰 Rachael MacFarlane
          杰森·哈里斯 Jason Harris
          达兰·诺里斯 Daran Norris
          劳伦·汤姆 Lauren Tom
          马克·哈米尔 Mark Hamill
          弗兰克·维尔克 Frank Welker
          莫里斯·拉马奇 Maurice LaMarche
          迪·布拉雷·贝克尔 Dee Bradley Baker
          杰夫·贝内特 Jeff Bennett
          凯姆·克拉克 Cam Clarke
          本·迪斯金 Ben Diskin
          格蕾·德丽斯勒 Grey DeLisle
          詹妮弗·黑尔 Jennifer Hale
          马特·莱文 Matt Levin

    ◎标  签 美国

    ◎简  介

      暂无相关剧情介绍
    Video
    ID : 1
    Format : AVC
    Format/Info : Advanced Video Codec
    Format profile : High@L4.1
    Format settings : CABAC / 4 Ref Frames
    Format settings, CABAC : Yes
    Format settings, Reference frames : 4 frames
    Codec ID : avc1
    Codec ID/Info : Advanced Video Coding
    Duration : 1 h 12 min
    Bit rate : 2 500 kb/s
    Width : 1 440 pixels
    Height : 1 080 pixels
    Display aspect ratio : 4:3
    Frame rate mode : Constant
    Frame rate : 29.970 (29970/1000/189150) FPS
    Color space : YUV
    Chroma subsampling : 4:2:0
    Bit depth : 8 bits
    Scan type : Progressive
    Bits/(Pixel*Frame) : 0.054
    Stream size : 1.27 GiB (91%)
    Writing library : x264 core 152 r2851M ba24899
    Encoding settings : cabac=1 / ref=4 / deblock=1:-1:-1 / analyse=0x3:0x113 / me=umh / subme=9 / psy=1 / psy_rd=1.00:0.15 / mixed_ref=1 / me_range=24 / chroma_me=1 / trellis=2 / 8x8dct=1 / cqm=0 / deadzone=21,11 / fast_pskip=1 / chroma_qp_offset=-3 / threads=16 / lookahead_threads=4 / sliced_threads=0 / nr=0 / decimate=1 / interlaced=0 / bluray_compat=0 / constrained_intra=0 / bframes=3 / b_pyramid=2 / b_adapt=2 / b_bias=0 / direct=3 / weightb=1 / open_gop=0 / weightp=2 / keyint=250 / keyint_min=25 / scenecut=40 / intra_refresh=0 / rc_lookahead=50 / rc=2pass / mbtree=1 / bitrate=2500 / ratetol=1.0 / qcomp=0.60 / qpmin=0 / qpmax=69 / qpstep=4 / cplxblur=20.0 / qblur=0.5 / vbv_maxrate=31250 / vbv_bufsize=31250 / nal_hrd=none / filler=0 / ip_ratio=1.40 / aq=3:1.00
    Encoded date : UTC 2021-02-22 13:13:10
    Tagged date : UTC 2021-02-22 13:13:10
    Codec configuration box : avcC

    Audio
    ID : 2
    Format : AAC LC
    Format/Info : Advanced Audio Codec Low Complexity
    Codec ID : mp4a-40-2
    Duration : 1 h 12 min
    Bit rate mode : Constant
    Bit rate : 224 kb/s
    Channel(s) : 2 channels
    Channel layout : L R
    Sampling rate : 48.0 kHz
    Frame rate : 46.875 FPS (1024 SPF)
    Compression mode : Lossy
    Stream size : 117 MiB (8%)
    Language : English
    Default : Yes
    Alternate group : 1
    Encoded date : UTC 2021-02-22 13:13:10
    Tagged date : UTC 2021-02-22 13:13:10






    本帖子中包含更多资源

    您需要 登录 才可以下载或查看,没有帐号?立即注册

    x
    回复

    使用道具 举报

  • TA的每日心情
    开心
    14 小时前
  • 签到天数: 41 天

    [LV.5]常住居民I

    b3425619 发表于 2021-2-24 07:14:50 | 显示全部楼层
    感謝樓主分享!
    回复 支持 反对

    使用道具 举报

    您需要登录后才可以回帖 登录 | 立即注册

    本版积分规则

    QQ|广告友链合作联系QQ:1374229927|小黑屋|威酷高清影视论坛

    GMT+8, 2021-3-6 22:24 , Processed in 0.018653 second(s), 12 queries , Gzip On, MemCached On.

    Powered by Discuz! X3.4

    Copyright © 2001-2020, Tencent Cloud.

    快速回复 返回顶部 返回列表