威酷高清论坛

 找回密码
 立即注册
查看: 49|回复: 1
收起左侧

[纪录] 阿巴拉契亚自然写真 Wild.Appalachia.2013.1080p.WEBRip.x264-RARBG 862.27MB

[复制链接]
  • TA的每日心情
    慵懒
    2021-3-23 22:13
  • 签到天数: 13 天

    [LV.3]偶尔看看II

    卡西迪奥 发表于 2021-4-6 22:19:55 | 显示全部楼层 |阅读模式


    ◎译  名 阿巴拉契亚自然写真
    ◎片  名 Wild Appalachia
    ◎年  代 2013
    ◎产  地 美国
    ◎类  别 纪录片
    ◎语  言 英语
    ◎上映日期 
    ◎IMDb评分 7.8/10 from 6 users
    ◎IMDb链接 https://www.imdb.com/title/tt3041344/
    ◎豆瓣评分 /10 from 0 users
    ◎豆瓣链接 https://movie.douban.com/subject/35387952/
    ◎片  长 47分钟

    ◎简  介

      An exploration of the Great Smoky Mountains in the southeastern US. Features a look at the flora and fauna of the region and includes profiles of the rangers who patrol its vast wilderness.
    Video
    ID : 1
    Format : AVC
    Format/Info : Advanced Video Codec
    Format profile : High@L4.1
    Format settings : CABAC / 4 Ref Frames
    Format settings, CABAC : Yes
    Format settings, Reference frames : 4 frames
    Codec ID : avc1
    Codec ID/Info : Advanced Video Coding
    Duration : 44 min 8 s
    Bit rate : 2 500 kb/s
    Width : 1 920 pixels
    Height : 1 080 pixels
    Display aspect ratio : 16:9
    Frame rate mode : Constant
    Frame rate : 25.000 FPS
    Color space : YUV
    Chroma subsampling : 4:2:0
    Bit depth : 8 bits
    Scan type : Progressive
    Bits/(Pixel*Frame) : 0.048
    Stream size : 789 MiB (92%)
    Writing library : x264 core 152 r2851M ba24899
    Encoding settings : cabac=1 / ref=4 / deblock=1:-1:-1 / analyse=0x3:0x113 / me=umh / subme=9 / psy=1 / psy_rd=1.00:0.15 / mixed_ref=1 / me_range=24 / chroma_me=1 / trellis=2 / 8x8dct=1 / cqm=0 / deadzone=21,11 / fast_pskip=1 / chroma_qp_offset=-3 / threads=16 / lookahead_threads=4 / sliced_threads=0 / nr=0 / decimate=1 / interlaced=0 / bluray_compat=0 / constrained_intra=0 / bframes=3 / b_pyramid=2 / b_adapt=2 / b_bias=0 / direct=3 / weightb=1 / open_gop=0 / weightp=2 / keyint=250 / keyint_min=25 / scenecut=40 / intra_refresh=0 / rc_lookahead=50 / rc=2pass / mbtree=1 / bitrate=2500 / ratetol=1.0 / qcomp=0.60 / qpmin=0 / qpmax=69 / qpstep=4 / cplxblur=20.0 / qblur=0.5 / vbv_maxrate=31250 / vbv_bufsize=31250 / nal_hrd=none / filler=0 / ip_ratio=1.40 / aq=3:1.00
    Encoded date : UTC 2021-04-06 09:00:23
    Tagged date : UTC 2021-04-06 09:00:23
    Codec configuration box : avcC

    Audio
    ID : 2
    Format : AAC LC
    Format/Info : Advanced Audio Codec Low Complexity
    Codec ID : mp4a-40-2
    Duration : 44 min 8 s
    Bit rate mode : Constant
    Bit rate : 224 kb/s
    Channel(s) : 2 channels
    Channel layout : L R
    Sampling rate : 48.0 kHz
    Frame rate : 46.875 FPS (1024 SPF)
    Compression mode : Lossy
    Stream size : 70.7 MiB (8%)
    Language : English
    Default : Yes
    Alternate group : 1
    Encoded date : UTC 2021-04-06 09:00:23
    Tagged date : UTC 2021-04-06 09:00:23







    本帖子中包含更多资源

    您需要 登录 才可以下载或查看,没有帐号?立即注册

    x
    回复

    使用道具 举报

  • TA的每日心情

    昨天 02:43
  • 签到天数: 16 天

    [LV.4]偶尔看看III

    co584131421 发表于 2021-4-7 01:34:49 | 显示全部楼层
    哎呦,回帖能转酷币吗?
    回复 支持 反对

    使用道具 举报

    您需要登录后才可以回帖 登录 | 立即注册

    本版积分规则

    QQ|广告友链合作联系QQ:1374229927|小黑屋|威酷高清影视论坛

    GMT+8, 2021-4-20 07:54 , Processed in 0.015450 second(s), 11 queries , Gzip On, MemCached On.

    Powered by Discuz! X3.4

    Copyright © 2001-2021, Tencent Cloud.

    快速回复 返回顶部 返回列表