威酷高清论坛

 找回密码
 立即注册
查看: 28|回复: 1
收起左侧

[动漫] 萌宠特工队 Marnies.Welt.2018.1080p.AMZN.WEBRip.DDP5.1.x264-tobias 2.96GB

[复制链接]
  • TA的每日心情
    慵懒
    2021-3-23 22:13
  • 签到天数: 13 天

    [LV.3]偶尔看看II

    卡西迪奥 发表于 2021-4-6 22:20:39 | 显示全部楼层 |阅读模式


    ◎译  名 萌宠特工队/Marnie’s World/呆萌特务(台)
    ◎片  名 Marnies Welt
    ◎年  代 2018
    ◎产  地 德国,比利时
    ◎类  别 动画 / 家庭 / 冒险
    ◎语  言 德语,英语
    ◎上映日期 2018-06-13(安锡动画电影节) / 2019-04-18(德国) / 2019-11-15(中国大陆)
    ◎IMDb评分 5.6/10 from 795 users
    ◎IMDb链接 https://www.imdb.com/title/tt5746054/
    ◎豆瓣评分 6.4/10 from 1964 users
    ◎豆瓣链接 https://movie.douban.com/subject/30247400/
    ◎片  长 93分钟
    ◎导  演 克里斯托弗·劳恩斯坦 Christoph Lauenstein / 沃尔夫冈·劳恩斯坦 Wolfgang Lauenstein
    ◎编  剧 克里斯托弗·劳恩斯坦 Christoph Lauenstein / 沃尔夫冈·劳恩斯坦 Wolfgang Lauenstein / 耶斯伯·穆勒 Jesper M?ller
    ◎主  演 亚历桑德娜·内尔德尔 Alexandra Neldel
          阿克西尔·普拉尔 Axel Prahl

    ◎标  签 动画 | 宠物 | 喜剧 | 德国 | 搞笑 | 大橘猫 | 2019 | 可爱

    ◎简  介

      小镇盗窃案频频发生,一只梦想成为大侦探的猫咪为了找出真凶决定离家出走。旅途中的她遇到了一只自认风度翩翩的公鸡,一只梦想成为马戏团明星的驴,一只仇恨人类的守门狗。四只小动物历经磨合,即将找出真凶时,却被误认为是偷窃真凶。他们该如何证明清白,如何守护友谊和梦想……
    Video
    ID : 1
    Format : AVC
    Format/Info : Advanced Video Codec
    Format profile : High@L4
    Format settings : CABAC / 4 Ref Frames
    Format settings, CABAC : Yes
    Format settings, Reference frames : 4 frames
    Codec ID : V_MPEG4/ISO/AVC
    Duration : 1 h 31 min
    Bit rate : 4 000 kb/s
    Width : 1 920 pixels
    Height : 1 080 pixels
    Display aspect ratio : 16:9
    Frame rate mode : Constant
    Frame rate : 24.000 FPS
    Color space : YUV
    Chroma subsampling : 4:2:0
    Bit depth : 8 bits
    Scan type : Progressive
    Bits/(Pixel*Frame) : 0.080
    Stream size : 2.55 GiB (86%)
    Default : Yes
    Forced : No
    Color range : Limited
    Color primaries : BT.709
    Transfer characteristics : BT.709
    Matrix coefficients : BT.709

    Audio
    ID : 2
    Format : E-AC-3
    Format/Info : Enhanced AC-3
    Commercial name : Dolby Digital Plus
    Codec ID : A_EAC3
    Duration : 1 h 31 min
    Bit rate mode : Constant
    Bit rate : 640 kb/s
    Channel(s) : 6 channels
    Channel layout : L R C LFE Ls Rs
    Sampling rate : 48.0 kHz
    Frame rate : 31.250 FPS (1536 SPF)
    Compression mode : Lossy
    Stream size : 418 MiB (14%)
    Title : English
    Language : English
    Service kind : Complete Main
    Default : Yes
    Forced : No










    本帖子中包含更多资源

    您需要 登录 才可以下载或查看,没有帐号?立即注册

    x
    回复

    使用道具 举报

  • TA的每日心情
    开心
    昨天 08:45
  • 签到天数: 71 天

    [LV.6]常住居民II

    b3425619 发表于 2021-4-7 07:11:54 | 显示全部楼层
    感谢楼主分享!
    回复 支持 反对

    使用道具 举报

    您需要登录后才可以回帖 登录 | 立即注册

    本版积分规则

    QQ|广告友链合作联系QQ:1374229927|小黑屋|威酷高清影视论坛

    GMT+8, 2021-4-20 08:59 , Processed in 0.016531 second(s), 11 queries , Gzip On, MemCached On.

    Powered by Discuz! X3.4

    Copyright © 2001-2021, Tencent Cloud.

    快速回复 返回顶部 返回列表