威酷高清论坛

 找回密码
 立即注册
查看: 15|回复: 0
收起左侧

[剧情] 巴布与斯塔尔的维斯塔德尔玛之旅 Barb.and.Star.Go.to.Vista.Del.Mar.2021.1080p.BluRay.x264-PiGNUS 12.06G

[复制链接]
  • TA的每日心情
    慵懒
    2021-3-23 22:13
  • 签到天数: 13 天

    [LV.3]偶尔看看II

    卡西迪奥 发表于 2021-4-7 22:08:08 | 显示全部楼层 |阅读模式


    ◎译  名 巴布与斯塔尔的维斯塔德尔玛之旅
    ◎片  名 Barb and Star go to Vista Del Mar
    ◎年  代 2021
    ◎产  地 美国
    ◎类  别 喜剧
    ◎语  言 英语
    ◎上映日期 2021-02-12(美国网络)
    ◎IMDb评分 6.5/10 from 5106 users
    ◎IMDb链接 https://www.imdb.com/title/tt3797512/
    ◎豆瓣评分 5.9/10 from 311 users
    ◎豆瓣链接 https://movie.douban.com/subject/25911046/
    ◎导  演 乔什·戈林鲍姆 Josh Greenbaum
    ◎编  剧 安妮·玛莫罗 Annie Mumolo / 克里斯汀·韦格 Kristen Wiig
    ◎主  演 克里斯汀·韦格 Kristen Wiig
          安妮·玛莫罗 Annie Mumolo
          詹米·多南 Jamie Dornan
          小达蒙·韦恩斯 Damon Wayans Jr.
          迈克尔·希区柯克 Michael Hitchcock
          科瓦米·帕特森 Kwame Patterson
          温迪·麦克伦登-考威 Wendi McLendon-Covey
          Mark Jonathan Davis
          汤姆·伦克 Tom Lenk
          汉克·罗杰森 Hank Rogerson
          福琼·费姆斯特 Fortune Feimster
          瓦妮莎·贝尔 Vanessa Bayer
          菲利丝·史密斯 Phyllis Smith
          罗斯·阿卜杜 Rose ABDoo
          娜塔莎·埃斯卡 Natasha Esca
          丸山凯伦 Karen Maruyama
          麦克·米勒 Mike Miller
          Adrian Makala
          罗布·卡瓦佐斯 Rob Cavazos

    ◎标  签 喜剧 | 美国 | 2021 | 美国电影 | 剧情 | 克里斯汀·韦格 | KristenWiig | 2020

    ◎简  介

      故事讲述两名好友第一次离开中西部的小镇去弗罗里达度假。在度假时,她们被卷入了一场坏人要杀死镇上每一个人的恐怖阴谋中。

    ◎获奖情况

      第23届美国服装设计工会奖 ?(2021)
      现代电影最佳服装设计(提名) 特雷斯·吉吉·菲尔德
    Video
    ID : 1
    Format : AVC
    Format/Info : Advanced Video Codec
    Format profile : High@L4.1
    Format settings : CABAC / 5 Ref Frames
    Format settings, CABAC : Yes
    Format settings, Reference frames : 5 frames
    Codec ID : V_MPEG4/ISO/AVC
    Duration : 1 h 46 min
    Bit rate : 12.3 Mb/s
    Width : 1 920 pixels
    Height : 800 pixels
    Display aspect ratio : 2.40:1
    Frame rate mode : Constant
    Frame rate : 23.976 (24000/1001/189150) FPS
    Color space : YUV
    Chroma subsampling : 4:2:0
    Bit depth : 8 bits
    Scan type : Progressive
    Bits/(Pixel*Frame) : 0.334
    Stream size : 9.19 GiB (76%)
    Writing library : x264 core 161 r3048 b86ae3c
    Encoding settings : cabac=1 / ref=5 / deblock=1:-3:-3 / analyse=0x3:0x133 / me=umh / subme=9 / psy=1 / psy_rd=1.00:0.00 / mixed_ref=1 / me_range=16 / chroma_me=1 / trellis=2 / 8x8dct=1 / cqm=0 / deadzone=21,11 / fast_pskip=1 / chroma_qp_offset=-2 / threads=25 / lookahead_threads=2 / sliced_threads=0 / nr=0 / decimate=1 / interlaced=0 / bluray_compat=0 / constrained_intra=0 / bframes=3 / b_pyramid=2 / b_adapt=2 / b_bias=0 / direct=3 / weightb=1 / open_gop=0 / weightp=2 / keyint=250 / keyint_min=23 / scenecut=40 / intra_refresh=0 / rc_lookahead=60 / rc=crf / mbtree=1 / crf=16.0 / qcomp=0.60 / qpmin=0 / qpmax=69 / qpstep=4 / ip_ratio=1.40 / aq=1:1.00
    Default : Yes
    Forced : No

    Audio #1
    ID : 2
    Format : DTS XLL
    Format/Info : Digital Theater Systems
    Commercial name : DTS-HD Master Audio
    Codec ID : A_DTS
    Duration : 1 h 46 min
    Bit rate mode : Variable
    Bit rate : 3 654 kb/s
    Channel(s) : 6 channels
    Channel layout : C L R Ls Rs LFE
    Sampling rate : 48.0 kHz
    Frame rate : 93.750 FPS (512 SPF)
    Bit depth : 24 bits
    Compression mode : Lossless
    Stream size : 2.73 GiB (23%)
    Language : English
    Default : Yes
    Forced : No

    Audio #2
    ID : 3
    Format : AAC LC
    Format/Info : Advanced Audio Codec Low Complexity
    Codec ID : A_AAC-2
    Duration : 1 h 46 min
    Bit rate : 98.4 kb/s
    Channel(s) : 2 channels
    Channel layout : L R
    Sampling rate : 48.0 kHz
    Frame rate : 46.875 FPS (1024 SPF)
    Compression mode : Lossy
    Delay relative to video : 9 ms
    Stream size : 75.3 MiB (1%)
    Title : Commentary
    Language : English
    Default : No
    Forced : No

    Text #1
    ID : 4
    Format : PGS
    Muxing mode : zlib
    Codec ID : S_HDMV/PGS
    Codec ID/Info : Picture based subtitle format used on BDs/HD-DVDs
    Duration : 1 h 46 min
    Bit rate : 53.7 kb/s
    Count of elements : 4062
    Stream size : 40.7 MiB (0%)
    Title : English SDH
    Language : English
    Default : No
    Forced : No

    Text #2
    ID : 5
    Format : PGS
    Muxing mode : zlib
    Codec ID : S_HDMV/PGS
    Codec ID/Info : Picture based subtitle format used on BDs/HD-DVDs
    Duration : 1 h 46 min
    Bit rate : 44.6 kb/s
    Count of elements : 3495
    Stream size : 33.9 MiB (0%)
    Title : Spanish
    Language : Spanish
    Default : No
    Forced : No

    Text #3
    ID : 6
    Format : PGS
    Muxing mode : zlib
    Codec ID : S_HDMV/PGS
    Codec ID/Info : Picture based subtitle format used on BDs/HD-DVDs
    Duration : 1 h 46 min
    Bit rate : 49.2 kb/s
    Count of elements : 3623
    Stream size : 37.4 MiB (0%)
    Title : French
    Language : French
    Default : No
    Forced : No

    Menu
    00:00:00.000 : Chapter 01
    00:06:15.292 : Chapter 02
    00:12:01.471 : Chapter 03
    00:19:09.899 : Chapter 04
    00:27:20.931 : Chapter 05
    00:31:18.376 : Chapter 06
    00:37:24.659 : Chapter 07
    00:43:34.654 : Chapter 08
    00:49:27.590 : Chapter 09
    00:54:51.163 : Chapter 10
    01:01:17.966 : Chapter 11
    01:10:17.505 : Chapter 12
    01:17:10.751 : Chapter 13
    01:24:55.090 : Chapter 14
    01:29:12.722 : Chapter 15
    01:34:18.319 : Chapter 16
    01:46:59.204 : Chapter 17







    本帖子中包含更多资源

    您需要 登录 才可以下载或查看,没有帐号?立即注册

    x
    回复

    使用道具 举报

    您需要登录后才可以回帖 登录 | 立即注册

    本版积分规则

    QQ|广告友链合作联系QQ:1374229927|小黑屋|威酷高清影视论坛

    GMT+8, 2021-4-20 09:37 , Processed in 0.020130 second(s), 12 queries , Gzip On, MemCached On.

    Powered by Discuz! X3.4

    Copyright © 2001-2021, Tencent Cloud.

    快速回复 返回顶部 返回列表