威酷高清论坛

 找回密码
 立即注册
查看: 18|回复: 0
收起左侧

[剧情] 爱情链坠/难忘吾爱 The.Locket.2002.1080p.AMZN.WEBRip.DDP2.0.x264-alfaHD 6.87GB

[复制链接]
  • TA的每日心情
    慵懒
    2021-3-23 22:13
  • 签到天数: 13 天

    [LV.3]偶尔看看II

    卡西迪奥 发表于 2021-4-7 22:26:47 | 显示全部楼层 |阅读模式


    ◎译  名 爱情链坠/难忘吾爱
    ◎片  名 The Locket
    ◎年  代 2002
    ◎产  地 美国
    ◎类  别 剧情
    ◎语  言 英语
    ◎上映日期 2002-12-08
    ◎IMDb评分 7.2/10 from 475 users
    ◎IMDb链接 https://www.imdb.com/title/tt0327016/
    ◎豆瓣评分 /10 from 0 users
    ◎豆瓣链接 https://movie.douban.com/subject/2084335/
    ◎导  演 凯伦·亚瑟 Karen Arthur
    ◎主  演 Janis Lozano
          Jonathan Frappier
          詹妮弗·费林 Jennifer Ferrin
          查德·威列 Chad Willett
          瓦妮莎·雷德格瑞夫 Vanessa Redgrave
          艾琳·齐格勒 Irene Ziegler
          卡伦克莱科布尔 Karen Kirschenbauer
          特瑞·欧奎恩 Terry O'Quinn
          布洛克·皮特斯 Brock Peters
          Mark Joy
          玛丽·麦克唐纳 Mary McDonnell
          玛格丽特·莫罗 Marguerite Moreau
          洛里·海瑞 Lori Heuring
          劳德伦斯·本尼迪克托 Lourdes Benedicto
          Michael Genevie
          罗达·格里菲丝 Rhoda Griffis
          John Kearns Jr.
          阿什莉·萨姆纳 Ashleigh Sumner

    ◎标  签 爱情 | 美国 | 难忘吾爱 | Vanessa_Redgrave | CCTV6 | 美国电影 | VanessaRedgrave | Locket

    ◎简  介

      迈克尔是一家老年公寓的护理员,曾经为了照顾母亲而辍学,现在,他的护理对象是埃斯特。在他的关心和照顾下,忧郁的老人脸上有了笑容。迈克尔的女友费伊聪明漂亮,她的父亲认为迈克尔配不上自己的女儿,劝他离开费伊。迈克尔感到非常痛苦。埃丝特知道后,向他讲述了自己的故事:原来,这位风烛残年的老人年轻时也曾有过一段刻骨铭心却又充满遗憾的爱情。现在她唯一的愿望是想找到依旧惦念的恋人,看看他生活得怎么样。迈克尔决心帮助埃斯特实现这个愿望,然而,当他们终于找到埃斯特阔别多年的恋人,却发现坐在面前的是一个老年痴呆症的患者。这使迈克尔深受震动……离别的时刻终于到来了,临终的埃丝特将当年自己的定情物交给迈克尔,希望那个链坠和戒指给他带来幸福……
    Video
    ID : 1
    Format : AVC
    Format/Info : Advanced Video Codec
    Format profile : High@L4
    Format settings : CABAC / 4 Ref Frames
    Format settings, CABAC : Yes
    Format settings, Reference frames : 4 frames
    Codec ID : V_MPEG4/ISO/AVC
    Duration : 1 h 38 min
    Bit rate mode : Constant
    Bit rate : 10 000 kb/s
    Width : 1 920 pixels
    Height : 800 pixels
    Display aspect ratio : 16:9
    Original display aspect ratio : 2.40:1
    Frame rate mode : Constant
    Frame rate : 23.976 (24000/1001/189150) FPS
    Color space : YUV
    Chroma subsampling : 4:2:0
    Bit depth : 8 bits
    Scan type : Progressive
    Bits/(Pixel*Frame) : 0.272
    Stream size : 6.71 GiB (98%)
    Default : Yes
    Forced : No
    Color range : Limited
    Color primaries : BT.709
    Transfer characteristics : BT.709
    Matrix coefficients : BT.709

    Audio
    ID : 2
    Format : E-AC-3
    Format/Info : Enhanced AC-3
    Commercial name : Dolby Digital Plus
    Codec ID : A_EAC3
    Duration : 1 h 38 min
    Bit rate mode : Constant
    Bit rate : 224 kb/s
    Channel(s) : 2 channels
    Channel layout : L R
    Sampling rate : 48.0 kHz
    Frame rate : 31.250 FPS (1536 SPF)
    Compression mode : Lossy
    Stream size : 158 MiB (2%)
    Language : English
    Service kind : Complete Main
    Default : Yes
    Forced : No

    Text #1
    ID : 3
    Format : UTF-8
    Codec ID : S_TEXT/UTF8
    Codec ID/Info : UTF-8 Plain Text
    Duration : 1 h 37 min
    Bit rate : 60 b/s
    Count of elements : 1756
    Stream size : 42.8 KiB (0%)
    Language : English
    Default : No
    Forced : No

    Text #2
    ID : 4
    Format : UTF-8
    Codec ID : S_TEXT/UTF8
    Codec ID/Info : UTF-8 Plain Text
    Duration : 1 h 37 min
    Bit rate : 62 b/s
    Count of elements : 1820
    Stream size : 44.4 KiB (0%)
    Title : SDH
    Language : English
    Default : No
    Forced : No





    本帖子中包含更多资源

    您需要 登录 才可以下载或查看,没有帐号?立即注册

    x
    回复

    使用道具 举报

    您需要登录后才可以回帖 登录 | 立即注册

    本版积分规则

    QQ|广告友链合作联系QQ:1374229927|小黑屋|威酷高清影视论坛

    GMT+8, 2021-4-20 09:20 , Processed in 0.015445 second(s), 11 queries , Gzip On, MemCached On.

    Powered by Discuz! X3.4

    Copyright © 2001-2021, Tencent Cloud.

    快速回复 返回顶部 返回列表