威酷高清论坛

 找回密码
 立即注册
查看: 10|回复: 2
收起左侧

[BD-720P] 女巫清算/罪孽 The.Reckoning.2020.720p.BluRay.x264.DTS-MT 4.27GB

[复制链接]
  • TA的每日心情
    慵懒
    2021-3-23 22:13
  • 签到天数: 13 天

    [LV.3]偶尔看看II

    卡西迪奥 发表于 2021-4-7 22:46:44 | 显示全部楼层 |阅读模式


    ◎译  名 女巫清算/罪孽
    ◎片  名 The Reckoning
    ◎年  代 2020
    ◎产  地 英国
    ◎类  别 恐怖
    ◎语  言 英语
    ◎上映日期 2020-08-20(国际幻想影展) / 2021-02-05(美国)
    ◎IMDb评分 4.6/10 from 1089 users
    ◎IMDb链接 https://www.imdb.com/title/tt9182964/
    ◎豆瓣评分 5.4/10 from 286 users
    ◎豆瓣链接 https://movie.douban.com/subject/34931877/
    ◎片  长 110分钟
    ◎导  演 尼尔·马歇尔 Neil Marshall
    ◎编  剧 夏洛特·柯克 Charlotte Kirk
    ◎主  演 西恩·帕特维 Sean Pertwee
          夏洛特·柯克 Charlotte Kirk
          史蒂芬·威丁顿 Steven Waddington
          乔·安德森 Joe Anderson
          里昂·奥肯登 Leon Ockenden

    ◎标  签 恐怖 | 惊悚 | 英国 | 英国电影 | 2020 | 尼尔·马歇尔 | 西恩帕特维 | 2021

    ◎简  介

      Co-written by lead Charlotte Kirk and Edward Evers-Swindell, the 1665 New England set horror film stars Kirk as Evelyn Haverstock, whose husband (Anderson) commits suicide, finding herself falsely accused of witchcraft after rejecting the advances of her landlord.
    Video
    ID : 1
    Format : AVC
    Format/Info : Advanced Video Codec
    Format profile : High@L4.1
    Format settings : CABAC / 12 Ref Frames
    Format settings, CABAC : Yes
    Format settings, Reference frames : 12 frames
    Codec ID : V_MPEG4/ISO/AVC
    Duration : 1 h 50 min
    Bit rate : 3 997 kb/s
    Width : 1 280 pixels
    Height : 540 pixels
    Display aspect ratio : 2.40:1
    Frame rate mode : Constant
    Frame rate : 23.976 (24000/1001/189150) FPS
    Color space : YUV
    Chroma subsampling : 4:2:0
    Bit depth : 8 bits
    Scan type : Progressive
    Bits/(Pixel*Frame) : 0.241
    Stream size : 3.10 GiB (73%)
    Writing library : x264 core 157 r2938 2b00a84 TnP@MTeam Mod
    Encoding settings : cabac=1 / ref=12 / deblock=1:-3:-3 / analyse=0x3:0x133 / me=umh / subme=10 / psy=1 / psy_rd=1.05:0.00 / mixed_ref=1 / me_range=32 / chroma_me=1 / trellis=2 / 8x8dct=1 / cqm=0 / deadzone=21,11 / fast_pskip=0 / chroma_qp_offset=-2 / threads=12 / lookahead_threads=2 / sliced_threads=0 / nr=0 / decimate=0 / interlaced=0 / bluray_compat=0 / constrained_intra=0 / bframes=8 / b_pyramid=2 / b_adapt=2 / b_bias=0 / direct=3 / weightb=1 / open_gop=0 / weightp=2 / keyint=250 / keyint_min=24 / scenecut=40 / intra_refresh=0 / rc_lookahead=250 / rc=crf / mbtree=0 / crf=16.8 / qcomp=0.60 / qpmin=0 / qpmax=69 / qpstep=4 / vbv_maxrate=62500 / vbv_bufsize=78125 / crf_max=0.0 / nal_hrd=none / filler=0 / ip_ratio=1.30 / pb_ratio=1.20 / aq=3:0.80
    Language : English
    Default : Yes
    Forced : No
    Color range : Limited
    Color primaries : BT.709
    Matrix coefficients : BT.709

    Audio
    ID : 2
    Format : DTS
    Format/Info : Digital Theater Systems
    Codec ID : A_DTS
    Duration : 1 h 50 min
    Bit rate mode : Constant
    Bit rate : 1 509 kb/s
    Channel(s) : 6 channels
    Channel layout : C L R Ls Rs LFE
    Sampling rate : 48.0 kHz
    Frame rate : 93.750 FPS (512 SPF)
    Bit depth : 24 bits
    Compression mode : Lossy
    Stream size : 1.17 GiB (27%)
    Language : English
    Default : Yes
    Forced : No

    Text
    ID : 3
    Format : UTF-8
    Codec ID : S_TEXT/UTF8
    Codec ID/Info : UTF-8 Plain Text
    Duration : 1 h 40 min
    Bit rate : 40 b/s
    Count of elements : 1063
    Stream size : 29.9 KiB (0%)
    Title : SRT
    Language : English
    Default : Yes
    Forced : No

    Menu
    00:00:00.000 : en:Chapter 01
    00:09:22.395 : en:Chapter 02
    00:21:25.409 : en:Chapter 03
    00:36:21.971 : en:Chapter 04
    00:46:47.680 : en:Chapter 05
    00:57:44.836 : en:Chapter 06
    01:14:35.513 : en:Chapter 07
    01:46:29.133 : en:Chapter 08






    本帖子中包含更多资源

    您需要 登录 才可以下载或查看,没有帐号?立即注册

    x
    回复

    使用道具 举报

  • TA的每日心情
    开心
    7 小时前
  • 签到天数: 303 天

    [LV.8]以坛为家I

    azhonglaile 发表于 2021-4-8 08:38:42 | 显示全部楼层
    威酷版主有精品
    回复 支持 反对

    使用道具 举报

  • TA的每日心情
    开心
    7 小时前
  • 签到天数: 303 天

    [LV.8]以坛为家I

    azhonglaile 发表于 2021-4-8 08:39:33 | 显示全部楼层
    威酷版主为人民服务
    回复 支持 反对

    使用道具 举报

    您需要登录后才可以回帖 登录 | 立即注册

    本版积分规则

    QQ|广告友链合作联系QQ:1374229927|小黑屋|威酷高清影视论坛

    GMT+8, 2021-4-17 17:09 , Processed in 0.017966 second(s), 12 queries , Gzip On, MemCached On.

    Powered by Discuz! X3.4

    Copyright © 2001-2021, Tencent Cloud.

    快速回复 返回顶部 返回列表