威酷高清论坛

 找回密码
 立即注册
查看: 19|回复: 1
收起左侧

[BD-720P] 杀手的肖像2/亨利.波特莱特:连环杀手 2 Henry.II.Portrait.of.a.Serial.Killer.1996.720p.BluRay.x264-GUACAMOLE 4.79GB

[复制链接]
  • TA的每日心情
    慵懒
    2021-3-23 22:13
  • 签到天数: 13 天

    [LV.3]偶尔看看II

    卡西迪奥 发表于 2021-4-7 22:48:18 | 显示全部楼层 |阅读模式


    ◎译  名 杀手的肖像2/亨利.波特莱特:连环杀手 2/连续杀人犯的一生 2
    ◎片  名 Henry: Portrait of a Serial Killer, Part 2
    ◎年  代 1996
    ◎产  地 美国
    ◎类  别 惊悚 / 恐怖 / 犯罪
    ◎语  言 英语
    ◎上映日期 1998-06-18
    ◎IMDb评分 4.9/10 from 888 users
    ◎IMDb链接 https://www.imdb.com/title/tt0116516/
    ◎豆瓣评分 /10 from 0 users
    ◎豆瓣链接 https://movie.douban.com/subject/1308291/
    ◎片  长 84 分钟
    ◎导  演 查克·帕莱罗 Chuck Parello
    ◎编  剧 查克·帕莱罗 Chuck Parello
    ◎主  演 尼尔·吉恩托利 Neil Giuntoli
          佩内洛普·米尔福 Penelope Milford
          凯特·沃什 Kate Walsh
          Kevin Sorenson
          Sam Saletta
          Jim Cantafio
          Kam Heskin
          Rich Wilkie

    ◎标  签 美国 | 美国电影 | 犯罪 | 连环杀手 | 恐怖电影 | 黑色 | 罪 | 我的标签

    ◎简  介

      Henry has wondered into a small town looking for work and a place to stay. He gets a job delivering and cleaning porto-potties and moves in with a co-worker until he gets his feet off the ground. Henry and his new friend soon start to kill.
    Video
    ID : 1
    Format : AVC
    Format/Info : Advanced Video Codec
    Format profile : High@L4.1
    Format settings : CABAC / 4 Ref Frames
    Format settings, CABAC : Yes
    Format settings, Reference frames : 4 frames
    Codec ID : V_MPEG4/ISO/AVC
    Duration : 1 h 24 min
    Bit rate : 7 313 kb/s
    Width : 1 280 pixels
    Height : 720 pixels
    Display aspect ratio : 16:9
    Frame rate mode : Constant
    Frame rate : 23.976 (24000/1001/189150) FPS
    Color space : YUV
    Chroma subsampling : 4:2:0
    Bit depth : 8 bits
    Scan type : Progressive
    Bits/(Pixel*Frame) : 0.331
    Stream size : 4.34 GiB (90%)
    Writing library : x264 core 161 r3048 b86ae3c
    Encoding settings : cabac=1 / ref=4 / deblock=1:-3:-3 / analyse=0x3:0x133 / me=umh / subme=9 / psy=1 / psy_rd=1.00:0.00 / mixed_ref=1 / me_range=16 / chroma_me=1 / trellis=2 / 8x8dct=1 / cqm=0 / deadzone=21,11 / fast_pskip=0 / chroma_qp_offset=-2 / threads=22 / lookahead_threads=1 / sliced_threads=0 / nr=0 / decimate=1 / interlaced=0 / bluray_compat=0 / constrained_intra=0 / bframes=3 / b_pyramid=2 / b_adapt=2 / b_bias=0 / direct=3 / weightb=1 / open_gop=0 / weightp=2 / keyint=250 / keyint_min=23 / scenecut=40 / intra_refresh=0 / rc_lookahead=60 / rc=crf / mbtree=1 / crf=21.0 / qcomp=0.60 / qpmin=0 / qpmax=69 / qpstep=4 / ip_ratio=1.40 / aq=3:0.60
    Default : Yes
    Forced : No
    Color range : Limited
    Matrix coefficients : BT.709

    Audio #1
    ID : 2
    Format : AC-3
    Format/Info : Audio Coding 3
    Commercial name : Dolby Digital
    Codec ID : A_AC3
    Duration : 1 h 24 min
    Bit rate mode : Constant
    Bit rate : 640 kb/s
    Channel(s) : 6 channels
    Channel layout : L R C LFE Ls Rs
    Sampling rate : 48.0 kHz
    Frame rate : 31.250 FPS (1536 SPF)
    Compression mode : Lossy
    Stream size : 388 MiB (8%)
    Language : English
    Service kind : Complete Main
    Default : Yes
    Forced : No

    Audio #2
    ID : 3
    Format : AAC LC
    Format/Info : Advanced Audio Codec Low Complexity
    Codec ID : A_AAC-2
    Duration : 1 h 24 min
    Bit rate : 118 kb/s
    Channel(s) : 2 channels
    Channel layout : L R
    Sampling rate : 48.0 kHz
    Frame rate : 46.875 FPS (1024 SPF)
    Compression mode : Lossy
    Delay relative to video : 9 ms
    Stream size : 71.5 MiB (1%)
    Title : Commentary
    Language : English
    Default : No
    Forced : No

    Text #1
    ID : 4
    Format : PGS
    Muxing mode : zlib
    Codec ID : S_HDMV/PGS
    Codec ID/Info : Picture based subtitle format used on BDs/HD-DVDs
    Duration : 1 h 22 min
    Bit rate : 22.6 kb/s
    Count of elements : 1176
    Stream size : 13.4 MiB (0%)
    Title : Vobsubs
    Language : English
    Default : No
    Forced : No

    Text #2
    ID : 5
    Format : PGS
    Muxing mode : zlib
    Codec ID : S_HDMV/PGS
    Codec ID/Info : Picture based subtitle format used on BDs/HD-DVDs
    Duration : 1 h 22 min
    Bit rate : 25.4 kb/s
    Count of elements : 1306
    Stream size : 15.0 MiB (0%)
    Title : Vobsubs
    Language : German
    Default : No
    Forced : No

    Text #3
    ID : 6
    Format : PGS
    Muxing mode : zlib
    Codec ID : S_HDMV/PGS
    Codec ID/Info : Picture based subtitle format used on BDs/HD-DVDs
    Duration : 23 min 33 s
    Bit rate : 768 b/s
    Count of elements : 11
    Stream size : 133 KiB (0%)
    Title : Forced
    Language : German
    Default : No
    Forced : No

    Menu
    00:00:00.000 : en:00:00:00.000
    00:06:41.234 : en:00:06:41.234
    00:13:21.217 : en:00:13:21.217
    00:21:10.311 : en:00:21:10.311
    00:28:04.766 : en:00:28:04.766
    00:35:36.426 : en:00:35:36.426
    00:42:14.991 : en:00:42:14.991
    00:48:43.170 : en:00:48:43.170
    00:55:45.425 : en:00:55:45.425
    01:03:37.939 : en:01:03:37.939
    01:09:44.222 : en:01:09:44.222
    01:17:05.788 : en:01:17:05.788






    本帖子中包含更多资源

    您需要 登录 才可以下载或查看,没有帐号?立即注册

    x
    回复

    使用道具 举报

  • TA的每日心情
    开心
    7 小时前
  • 签到天数: 69 天

    [LV.6]常住居民II

    b3425619 发表于 2021-4-8 07:10:29 | 显示全部楼层

    谢楼主分享 支持
    回复 支持 反对

    使用道具 举报

    您需要登录后才可以回帖 登录 | 立即注册

    本版积分规则

    QQ|广告友链合作联系QQ:1374229927|小黑屋|威酷高清影视论坛

    GMT+8, 2021-4-17 15:45 , Processed in 0.023343 second(s), 12 queries , Gzip On, MemCached On.

    Powered by Discuz! X3.4

    Copyright © 2001-2021, Tencent Cloud.

    快速回复 返回顶部 返回列表