威酷高清论坛

 找回密码
 立即注册
查看: 9|回复: 0
收起左侧

[动作] 疯狂劫持旅 The.Millionaire.Tour.2012.1080p.AMZN.WEBRip.DDP2.0.x264-NWD 5.22GB

[复制链接]
  • TA的每日心情
    慵懒
    2021-3-23 22:13
  • 签到天数: 13 天

    [LV.3]偶尔看看II

    卡西迪奥 发表于 2021-4-8 08:55:42 | 显示全部楼层 |阅读模式


    ◎译  名 疯狂劫持旅
    ◎片  名 The Millionaire Tour
    ◎年  代 2012
    ◎产  地 美国
    ◎类  别 动作 / 惊悚
    ◎语  言 英语
    ◎上映日期 
    ◎IMDb评分 6.4/10 from 2565 users
    ◎IMDb链接 https://www.imdb.com/title/tt1937388/
    ◎豆瓣评分 /10 from 0 users
    ◎豆瓣链接 https://movie.douban.com/subject/10587419/
    ◎主  演 艾格尼丝·布鲁根 Agnes Bruckner
          布鲁斯·戴维森 Bruce Davison
          乔丹·贝尔菲 Jordan Belfi

    ◎标  签 美国 | 惊悚 | 多米尼克·莫纳汉 | 艾格尼丝·布鲁根 | 犯罪 | 暴力 | 布鲁斯·戴维森 | 动作

    ◎简  介

      A mysterious cab passenger who is taken hostage must convince the hijackers that he is not the legendary con man they set out to kill. Is it a case of mistaken identity, or a clever act of deception? A series of mind games and escape ploys will determine who's taking who for a ride...
    Video
    ID : 1
    Format : AVC
    Format/Info : Advanced Video Codec
    Format profile : High@L4
    Format settings : CABAC / 4 Ref Frames
    Format settings, CABAC : Yes
    Format settings, Reference frames : 4 frames
    Codec ID : V_MPEG4/ISO/AVC
    Duration : 1 h 24 min
    Bit rate mode : Constant
    Bit rate : 8 640 kb/s
    Nominal bit rate : 10 000 kb/s
    Width : 1 920 pixels
    Height : 1 080 pixels
    Display aspect ratio : 16:9
    Frame rate mode : Constant
    Frame rate : 23.976 (24000/1001/189150) FPS
    Color space : YUV
    Chroma subsampling : 4:2:0
    Bit depth : 8 bits
    Scan type : Progressive
    Bits/(Pixel*Frame) : 0.174
    Stream size : 5.08 GiB (97%)
    Default : Yes
    Forced : No
    Color range : Limited
    Color primaries : BT.709
    Transfer characteristics : BT.709
    Matrix coefficients : BT.709

    Audio
    ID : 2
    Format : E-AC-3
    Format/Info : Enhanced AC-3
    Commercial name : Dolby Digital Plus
    Codec ID : A_EAC3
    Duration : 1 h 24 min
    Bit rate mode : Constant
    Bit rate : 224 kb/s
    Channel(s) : 2 channels
    Channel layout : L R
    Sampling rate : 48.0 kHz
    Frame rate : 31.250 FPS (1536 SPF)
    Compression mode : Lossy
    Stream size : 135 MiB (3%)
    Language : English
    Service kind : Complete Main
    Default : Yes
    Forced : No






    本帖子中包含更多资源

    您需要 登录 才可以下载或查看,没有帐号?立即注册

    x
    回复

    使用道具 举报

    您需要登录后才可以回帖 登录 | 立即注册

    本版积分规则

    QQ|广告友链合作联系QQ:1374229927|小黑屋|威酷高清影视论坛

    GMT+8, 2021-4-20 08:58 , Processed in 0.016777 second(s), 13 queries , Gzip On, MemCached On.

    Powered by Discuz! X3.4

    Copyright © 2001-2021, Tencent Cloud.

    快速回复 返回顶部 返回列表