威酷高清论坛

 找回密码
 立即注册
查看: 11|回复: 0
收起左侧

[喜剧] 嘻哈僧侣 The.Holy.Man.2005.THAI.1080p.NF.WEBRip.DDP5.1.x264-NOGRP 4.26GB

[复制链接]
  • TA的每日心情
    慵懒
    2021-3-23 22:13
  • 签到天数: 13 天

    [LV.3]偶尔看看II

    卡西迪奥 发表于 2021-4-8 09:06:08 | 显示全部楼层 |阅读模式


    ◎译  名 嘻哈僧侣/The Holy Man
    ◎片  名 ???????????
    ◎年  代 2005
    ◎产  地 泰国
    ◎类  别 喜剧
    ◎语  言 泰语
    ◎上映日期 2005-03-03
    ◎IMDb评分 6/10 from 107 users
    ◎IMDb链接 https://www.imdb.com/title/tt0470850/
    ◎豆瓣评分 /10 from 0 users
    ◎豆瓣链接 https://movie.douban.com/subject/1925514/
    ◎主  演 萨维卡·恰雅德 Savika Chaiyadej

    ◎标  签 泰国 | 嘻哈 | 佛教 | 喜剧

    ◎简  介

      Brother Theng (Pongsak Pongsuwan), a young monk, moves to a temple in a village where villagers still foolishly believe in ghosts and spirits. Thinking of how to develop a better way of life for the villagers, he intends to renew the villagers' belief to more reasonable ways with the help from his followers like Song (Note Chern-Yim) and Pian (Sarawut Poomthong). But it's not so easy to convince these villagers. Brother Theng has to deal with tough situations that come along with humour.
    Video
    ID : 1
    Format : AVC
    Format/Info : Advanced Video Codec
    Format profile : Main@L4
    Format settings : CABAC / 3 Ref Frames
    Format settings, CABAC : Yes
    Format settings, Reference frames : 3 frames
    Codec ID : V_MPEG4/ISO/AVC
    Duration : 1 h 32 min
    Bit rate mode : Variable
    Bit rate : 6 490 kb/s
    Maximum bit rate : 9 735 kb/s
    Width : 1 920 pixels
    Height : 1 080 pixels
    Display aspect ratio : 16:9
    Frame rate mode : Constant
    Frame rate : 25.000 FPS
    Color space : YUV
    Chroma subsampling : 4:2:0
    Bit depth : 8 bits
    Scan type : Progressive
    Bits/(Pixel*Frame) : 0.125
    Stream size : 4.17 GiB (98%)
    Writing library : x264 core 148 r2715 7e75228
    Encoding settings : cabac=1 / ref=3 / deblock=1:0:0 / analyse=0x1:0x111 / me=umh / subme=10 / psy=1 / psy_rd=1.00:0.00 / mixed_ref=1 / me_range=24 / chroma_me=1 / trellis=2 / 8x8dct=0 / cqm=0 / deadzone=21,11 / fast_pskip=1 / chroma_qp_offset=-2 / threads=8 / lookahead_threads=1 / sliced_threads=0 / nr=0 / decimate=1 / interlaced=0 / bluray_compat=0 / stitchable=1 / constrained_intra=0 / bframes=2 / b_pyramid=0 / b_adapt=2 / b_bias=0 / direct=3 / weightb=1 / open_gop=0 / weightp=2 / keyint=50 / keyint_min=26 / scenecut=0 / intra_refresh=0 / rc_lookahead=50 / rc=2pass / mbtree=1 / bitrate=6490 / ratetol=1.0 / qcomp=0.50 / qpmin=6 / qpmax=51 / qpstep=4 / cplxblur=20.0 / qblur=0.5 / vbv_maxrate=9735 / vbv_bufsize=12980 / nal_hrd=vbr / filler=0 / ip_ratio=1.40 / aq=1:1.00
    Default : Yes
    Forced : No

    Audio
    ID : 2
    Format : E-AC-3
    Format/Info : Enhanced AC-3
    Commercial name : Dolby Digital Plus
    Codec ID : A_EAC3
    Duration : 1 h 32 min
    Bit rate mode : Constant
    Bit rate : 128 kb/s
    Channel(s) : 2 channels
    Channel layout : L R
    Sampling rate : 48.0 kHz
    Frame rate : 31.250 FPS (1536 SPF)
    Compression mode : Lossy
    Stream size : 84.3 MiB (2%)
    Title : Thai
    Language : Thai
    Service kind : Complete Main
    Default : No
    Forced : No

    Text #1
    ID : 3
    Format : UTF-8
    Codec ID : S_TEXT/UTF8
    Codec ID/Info : UTF-8 Plain Text
    Duration : 1 h 31 min
    Bit rate : 45 b/s
    Count of elements : 1318
    Stream size : 30.6 KiB (0%)
    Title : English [Full]
    Language : English
    Default : No
    Forced : No

    Text #2
    ID : 4
    Format : UTF-8
    Codec ID : S_TEXT/UTF8
    Codec ID/Info : UTF-8 Plain Text
    Duration : 1 h 29 min
    Bit rate : 149 b/s
    Count of elements : 1419
    Stream size : 97.3 KiB (0%)
    Title : Thai [SDH]
    Language : Thai
    Default : No
    Forced : No

    Text #3
    ID : 5
    Format : UTF-8
    Codec ID : S_TEXT/UTF8
    Codec ID/Info : UTF-8 Plain Text
    Duration : 1 h 31 min
    Bit rate : 44 b/s
    Count of elements : 1319
    Stream size : 29.7 KiB (0%)
    Title : Chinese (Simplified) [Full]
    Language : Chinese
    Default : No
    Forced : No

    Text #4
    ID : 6
    Format : UTF-8
    Codec ID : S_TEXT/UTF8
    Codec ID/Info : UTF-8 Plain Text
    Duration : 1 h 31 min
    Bit rate : 44 b/s
    Count of elements : 1307
    Stream size : 30.1 KiB (0%)
    Title : Chinese (Traditional) [Full]
    Language : Chinese
    Default : No
    Forced : No





    本帖子中包含更多资源

    您需要 登录 才可以下载或查看,没有帐号?立即注册

    x
    回复

    使用道具 举报

    您需要登录后才可以回帖 登录 | 立即注册

    本版积分规则

    QQ|广告友链合作联系QQ:1374229927|小黑屋|威酷高清影视论坛

    GMT+8, 2021-4-20 09:02 , Processed in 0.016268 second(s), 12 queries , Gzip On, MemCached On.

    Powered by Discuz! X3.4

    Copyright © 2001-2021, Tencent Cloud.

    快速回复 返回顶部 返回列表