威酷高清论坛

 找回密码
 立即注册
查看: 17|回复: 0
收起左侧

[剧情] 扇尾鸽 Fantail.2013.1080p.WEB-DL.DD5.1.H264-FGT 2.41GB

[复制链接]
  • TA的每日心情
    慵懒
    2021-3-23 22:13
  • 签到天数: 13 天

    [LV.3]偶尔看看II

    卡西迪奥 发表于 2021-4-8 09:41:28 | 显示全部楼层 |阅读模式


    ◎译  名 扇尾鸽
    ◎片  名 Fantail
    ◎年  代 2013
    ◎产  地 新西兰
    ◎类  别 剧情 / 喜剧
    ◎语  言 英语
    ◎上映日期 2014-06-05(新西兰)
    ◎IMDb评分 7.1/10 from 138 users
    ◎IMDb链接 https://www.imdb.com/title/tt3074758/
    ◎豆瓣评分 /10 from 0 users
    ◎豆瓣链接 https://movie.douban.com/subject/25869566/
    ◎片  长 81分钟
    ◎导  演 柯蒂斯·沃威尔 Curtis Vowell
    ◎编  剧 苏菲·亨德森 Sophie Henderson
    ◎主  演 苏菲·亨德森 Sophie Henderson
          斯特芬·劳瓦特 Stephen Lovatt

    ◎标  签 新西兰 | 剧情 | 2013 | 电影院 | 人性 | 影展

    ◎简  介

      Tania thinks she's Maori. She works the graveyard shift at a petrol station, saving money so she can take her brother Piwakawaka to Surfers Paradise to find their dad. When Pi goes away to pick kiwifruit, Tania is left by herself to plan for their trip. Stuck in a petrol station - getting security training and making sure her boss, Rog, doesn't lose his job - Tania can't rescue her brother from his new mates and from thinking he can fly. Dean, the regional manager, arrives to keep an eye on Rog but Dean has his eye on Tania, too. When Dean questions Tania's culture and who her family is, she starts to piece together the truth and realises she must save her brother and bring him home. Then one night a cheeky little bird ruins everything and Tania pays the ultimate price for being a hero.
    Video
    ID : 1
    Format : AVC
    Format/Info : Advanced Video Codec
    Format profile : High@L4
    Format settings : CABAC / 5 Ref Frames
    Format settings, CABAC : Yes
    Format settings, Reference frames : 5 frames
    Codec ID : V_MPEG4/ISO/AVC
    Duration : 1 h 17 min
    Bit rate : 4 046 kb/s
    Width : 1 912 pixels
    Height : 812 pixels
    Display aspect ratio : 2.35:1
    Frame rate mode : Constant
    Frame rate : 25.000 FPS
    Color space : YUV
    Chroma subsampling : 4:2:0
    Bit depth : 8 bits
    Scan type : Progressive
    Bits/(Pixel*Frame) : 0.104
    Stream size : 2.20 GiB (91%)
    Language : English
    Default : Yes
    Forced : No
    Color range : Limited
    Color primaries : BT.709
    Transfer characteristics : BT.709
    Matrix coefficients : BT.709

    Audio
    ID : 2
    Format : AC-3
    Format/Info : Audio Coding 3
    Commercial name : Dolby Digital
    Codec ID : A_AC3
    Duration : 1 h 17 min
    Bit rate mode : Constant
    Bit rate : 384 kb/s
    Channel(s) : 6 channels
    Channel layout : L R C LFE Ls Rs
    Sampling rate : 48.0 kHz
    Frame rate : 31.250 FPS (1536 SPF)
    Compression mode : Lossy
    Stream size : 214 MiB (9%)
    Language : English
    Service kind : Complete Main
    Default : Yes
    Forced : No







    本帖子中包含更多资源

    您需要 登录 才可以下载或查看,没有帐号?立即注册

    x
    回复

    使用道具 举报

    您需要登录后才可以回帖 登录 | 立即注册

    本版积分规则

    QQ|广告友链合作联系QQ:1374229927|小黑屋|威酷高清影视论坛

    GMT+8, 2021-4-17 16:50 , Processed in 0.015558 second(s), 12 queries , Gzip On, MemCached On.

    Powered by Discuz! X3.4

    Copyright © 2001-2021, Tencent Cloud.

    快速回复 返回顶部 返回列表