威酷高清论坛

 找回密码
 立即注册
查看: 14|回复: 0
收起左侧

[恐怖] 冰血寒颤 Blood.Runs.Cold.2011.1080p.BluRay.x264.DD5.1-HANDJOB 6.96GB

[复制链接]
  • TA的每日心情
    慵懒
    2021-3-23 22:13
  • 签到天数: 13 天

    [LV.3]偶尔看看II

    卡西迪奥 发表于 2021-4-8 09:53:57 | 显示全部楼层 |阅读模式


    ◎译  名 冰血寒颤
    ◎片  名 Blood Runs Cold
    ◎年  代 2011
    ◎产  地 瑞典
    ◎类  别 恐怖
    ◎语  言 英语
    ◎上映日期 
    ◎IMDb评分 4.1/10 from 1269 users
    ◎IMDb链接 https://www.imdb.com/title/tt1844633/
    ◎豆瓣评分 4.0/10 from 233 users
    ◎豆瓣链接 https://movie.douban.com/subject/6873205/
    ◎片  长 80分钟

    ◎标  签 恐怖 | 惊悚 | 血腥 | 瑞典 | 2011 | 瑞典电影 | 基本没有什么可看的 | 魅影字幕组

    ◎简  介

      年轻的音乐人维诺拉(汉娜·奥登伯格 Hanna Oldenburg 饰)被工作压得身心疲惫,于是从紧张的行程中抽身,躲到了经纪人为她在偏僻乡村租的房子里休息。这所房子地处山间,且老旧破败,维诺拉百无聊赖去酒馆散心,并邂逅了当年的男友瑞克(帕特里克·塞克斯 Patrick Saxe 饰)及其朋友卡尔(Andreas Rylander 饰)、莉丝(Elin Hugoson 饰)。她热情地邀请瑞克等人来房子作客,四个年轻人相谈甚欢,全然不知接下来将发生的事情。
      
      夜深人静,阴沉的脚步声开始在房间内响起,卡尔和莉丝接连遭遇血腥屠杀,久别重逢的维诺拉和瑞克却全然不知夜晚发生的事情。食人恶魔的脚步渐渐逼向了他们……
    Video
    ID : 1
    Format : AVC
    Format/Info : Advanced Video Codec
    Format profile : High@L4.1
    Format settings : CABAC / 5 Ref Frames
    Format settings, CABAC : Yes
    Format settings, Reference frames : 5 frames
    Codec ID : V_MPEG4/ISO/AVC
    Duration : 1 h 17 min
    Bit rate : 12.3 Mb/s
    Width : 1 920 pixels
    Height : 816 pixels
    Display aspect ratio : 2.35:1
    Frame rate mode : Constant
    Frame rate : 24.000 FPS
    Color space : YUV
    Chroma subsampling : 4:2:0
    Bit depth : 8 bits
    Scan type : Progressive
    Bits/(Pixel*Frame) : 0.326
    Stream size : 6.60 GiB (95%)
    Writing library : x264 core 157 r2935 545de2f
    Encoding settings : cabac=1 / ref=5 / deblock=1:-3:-3 / analyse=0x3:0x133 / me=umh / subme=10 / psy=1 / psy_rd=1.00:0.00 / mixed_ref=1 / me_range=32 / chroma_me=1 / trellis=2 / 8x8dct=1 / cqm=0 / deadzone=21,11 / fast_pskip=0 / chroma_qp_offset=-2 / threads=6 / lookahead_threads=1 / sliced_threads=0 / nr=0 / decimate=0 / interlaced=0 / bluray_compat=0 / constrained_intra=0 / bframes=16 / b_pyramid=2 / b_adapt=2 / b_bias=0 / direct=3 / weightb=1 / open_gop=0 / weightp=2 / keyint=240 / keyint_min=24 / scenecut=40 / intra_refresh=0 / rc_lookahead=60 / rc=crf / mbtree=0 / crf=15.8 / qcomp=0.60 / qpmin=0 / qpmax=69 / qpstep=4 / vbv_maxrate=62500 / vbv_bufsize=78125 / crf_max=0.0 / nal_hrd=none / filler=0 / ip_ratio=1.40 / pb_ratio=1.30 / aq=2:1.00
    Default : Yes
    Forced : No
    Color range : Limited
    Color primaries : BT.709
    Transfer characteristics : BT.709
    Matrix coefficients : BT.709

    Audio
    ID : 2
    Format : AC-3
    Format/Info : Audio Coding 3
    Commercial name : Dolby Digital
    Codec ID : A_AC3
    Duration : 1 h 17 min
    Bit rate mode : Constant
    Bit rate : 640 kb/s
    Channel(s) : 6 channels
    Channel layout : L R C LFE Ls Rs
    Sampling rate : 48.0 kHz
    Frame rate : 31.250 FPS (1536 SPF)
    Compression mode : Lossy
    Stream size : 353 MiB (5%)
    Language : English
    Service kind : Complete Main
    Default : Yes
    Forced : No

    Text
    ID : 3
    Format : PGS
    Codec ID : S_HDMV/PGS
    Codec ID/Info : Picture based subtitle format used on BDs/HD-DVDs
    Duration : 1 h 4 min
    Bit rate : 12.4 kb/s
    Count of elements : 479
    Stream size : 5.68 MiB (0%)
    Language : German
    Default : No
    Forced : No

    Menu
    00:00:00.000 : :Chapter 1
    00:06:05.250 : :Chapter 2
    00:11:25.792 : :Chapter 3
    00:18:37.375 : :Chapter 4
    00:22:54.917 : :Chapter 5
    00:28:08.417 : :Chapter 6
    00:31:49.292 : :Chapter 7
    00:38:29.958 : :Chapter 8
    00:45:36.583 : :Chapter 9
    00:50:27.000 : :Chapter 10
    00:55:35.458 : :Chapter 11
    01:00:31.750 : :Chapter 12
    01:04:54.250 : :Chapter 13
    01:09:50.958 : :Chapter 14
    01:12:48.833 : :Chapter 15





    本帖子中包含更多资源

    您需要 登录 才可以下载或查看,没有帐号?立即注册

    x
    回复

    使用道具 举报

    您需要登录后才可以回帖 登录 | 立即注册

    本版积分规则

    QQ|广告友链合作联系QQ:1374229927|小黑屋|威酷高清影视论坛

    GMT+8, 2021-4-17 15:59 , Processed in 0.018988 second(s), 12 queries , Gzip On, MemCached On.

    Powered by Discuz! X3.4

    Copyright © 2001-2021, Tencent Cloud.

    快速回复 返回顶部 返回列表