威酷高清论坛

 找回密码
 立即注册
查看: 22|回复: 1
收起左侧

[剧情] 青涩的季节.1984.FRENCH.ENSUBBED.1080p.AMZN.WEBRip.DDP2.0.x264-PLiSSKEN 7.81GB

[复制链接]
  • TA的每日心情
    慵懒
    2021-3-23 22:13
  • 签到天数: 13 天

    [LV.3]偶尔看看II

    卡西迪奥 发表于 2021-4-8 14:53:14 | 显示全部楼层 |阅读模式


    ◎译  名 青涩的季节/美杜莎的面具
    ◎片  名 l'annee des meduses
    ◎年  代 1984
    ◎产  地 法国
    ◎类  别 剧情 / 爱情 / 惊悚
    ◎语  言 法语
    ◎上映日期 1984-11-14
    ◎IMDb评分 5.7/10 from 1000 users
    ◎IMDb链接 https://www.imdb.com/title/tt0086902/
    ◎豆瓣评分 5.7/10 from 44 users
    ◎豆瓣链接 https://movie.douban.com/subject/1481469/
    ◎片  长 110 分钟
    ◎导  演 克里斯托弗·弗兰克 Christopher Frank
    ◎编  剧 克里斯托弗·弗兰克 Christopher Frank
    ◎主  演 菲利浦·勒迈尔 Philippe Lemaire
          卡罗利娜·塞利埃 Caroline Cellier
          贝亚特丽丝·阿热南 Béatrice Agenin
          皮埃尔·瓦内克 Pierre Vaneck
          范蕾丽尔·卡帕里斯基 Valérie Kaprisky
          贝纳·纪欧多 Bernard Giraudeau
          雅克·贝汉 Jacques Perrin
          艾玛纽尔·塞尼耶 Emmanuelle Seigner
          夏洛特·卡迪 Charlotte Kady

    ◎标  签 法国 | 情色 | 法国电影 | 法国情色 | 青涩的季节 | 电影 | 1980S | 美杜莎的面具

    ◎简  介

      青春可人的丽丝,偷偷的勾引了妈妈的朋友,在此同时,他却说不喜欢男人她令一对夫妇为她而分手,但原来他更在意的是一直喜欢的人却喜欢自己的妈妈....逼不得已,她勾引他上了床......
    Video
    ID : 1
    Format : AVC
    Format/Info : Advanced Video Codec
    Format profile : High@L4
    Format settings : CABAC / 4 Ref Frames
    Format settings, CABAC : Yes
    Format settings, Reference frames : 4 frames
    Codec ID : V_MPEG4/ISO/AVC
    Duration : 1 h 50 min
    Bit rate mode : Constant
    Bit rate : 10 000 kb/s
    Width : 1 920 pixels
    Height : 1 080 pixels
    Display aspect ratio : 16:9
    Frame rate mode : Constant
    Frame rate : 24.000 FPS
    Color space : YUV
    Chroma subsampling : 4:2:0
    Bit depth : 8 bits
    Scan type : Progressive
    Bits/(Pixel*Frame) : 0.201
    Stream size : 7.63 GiB (98%)
    Default : Yes
    Forced : No
    Color range : Limited
    Color primaries : BT.709
    Transfer characteristics : BT.709
    Matrix coefficients : BT.709

    Audio
    ID : 2
    Format : E-AC-3
    Format/Info : Enhanced AC-3
    Commercial name : Dolby Digital Plus
    Codec ID : A_EAC3
    Duration : 1 h 50 min
    Bit rate mode : Constant
    Bit rate : 224 kb/s
    Channel(s) : 2 channels
    Channel layout : L R
    Sampling rate : 48.0 kHz
    Frame rate : 31.250 FPS (1536 SPF)
    Compression mode : Lossy
    Stream size : 176 MiB (2%)
    Language : French
    Service kind : Complete Main
    Default : Yes
    Forced : No

    Text
    ID : 3
    Format : UTF-8
    Codec ID : S_TEXT/UTF8
    Codec ID/Info : UTF-8 Plain Text
    Duration : 1 h 49 min
    Bit rate : 42 b/s
    Count of elements : 1288
    Stream size : 34.0 KiB (0%)
    Title : SDH
    Language : English
    Default : No
    Forced : No







    本帖子中包含更多资源

    您需要 登录 才可以下载或查看,没有帐号?立即注册

    x
    回复

    使用道具 举报

  • TA的每日心情
    奋斗
    昨天 19:24
  • 签到天数: 599 天

    [LV.9]以坛为家II

    1260AJB 发表于 2021-4-8 19:49:32 | 显示全部楼层
    感谢露珠分享资源,辛苦了~
    回复 支持 反对

    使用道具 举报

    您需要登录后才可以回帖 登录 | 立即注册

    本版积分规则

    QQ|广告友链合作联系QQ:1374229927|小黑屋|威酷高清影视论坛

    GMT+8, 2021-4-20 09:12 , Processed in 0.017611 second(s), 12 queries , Gzip On, MemCached On.

    Powered by Discuz! X3.4

    Copyright © 2001-2021, Tencent Cloud.

    快速回复 返回顶部 返回列表