威酷高清论坛

 找回密码
 立即注册
查看: 22|回复: 0
收起左侧

[剧情] 辣哥神探/靓仔也带枪 2013.1080p.AMZN.WEBRip.DDP2.0.x264-PTP 3.78GB

[复制链接]
  • TA的每日心情
    慵懒
    2021-3-23 22:13
  • 签到天数: 13 天

    [LV.3]偶尔看看II

    卡西迪奥 发表于 2021-4-8 20:50:36 | 显示全部楼层 |阅读模式


    ◎译  名 辣哥神探/靓仔也带枪
    ◎片  名 Hot Guys With Guns
    ◎年  代 2013
    ◎产  地 美国
    ◎类  别 剧情 / 同性 / 犯罪
    ◎语  言 英语
    ◎上映日期 2013-05-07
    ◎IMDb评分 5.5/10 from 330 users
    ◎IMDb链接 https://www.imdb.com/title/tt2719796/
    ◎豆瓣评分 4.6/10 from 147 users
    ◎豆瓣链接 https://movie.douban.com/subject/23563808/
    ◎片  长 111分钟
    ◎主  演 Ainsworth Morgan
          Leon Acord
          David Nathie Barnes
          Trey McCurley
          艾伦·布卢门菲尔德 Alan Blumenfeld
          朱名愚 Mingyu Chu

    ◎标  签 美国 | 同性 | 犯罪 | Gay | 2013 | 剧情 | 电影 | 喜剧

    ◎简  介

      Danny Lohman is an actor who takes his work a little too seriously. Pip Armstrong is Danny's ex with a trust fund and a knack of finding trouble. Together they enlist the help of a jaded P.I., Jimmy Peppicelli, to break up a crime spree targeting Hollywood's Gay Mafia. It's definitely a queer way to solve a crime!
    Video
    ID : 1
    Format : AVC
    Format/Info : Advanced Video Codec
    Format profile : High@L4
    Format settings : CABAC / 4 Ref Frames
    Format settings, CABAC : Yes
    Format settings, Reference frames : 4 frames
    Codec ID : V_MPEG4/ISO/AVC
    Duration : 1 h 50 min
    Bit rate mode : Constant
    Bit rate : 4 675 kb/s
    Nominal bit rate : 10 000 kb/s
    Width : 1 920 pixels
    Height : 1 080 pixels
    Display aspect ratio : 16:9
    Frame rate mode : Constant
    Frame rate : 23.976 (24000/1001/189150) FPS
    Color space : YUV
    Chroma subsampling : 4:2:0
    Bit depth : 8 bits
    Scan type : Progressive
    Bits/(Pixel*Frame) : 0.094
    Stream size : 3.61 GiB (95%)
    Default : Yes
    Forced : No
    Color range : Limited
    Color primaries : BT.709
    Transfer characteristics : BT.709
    Matrix coefficients : BT.709

    Audio
    ID : 2
    Format : E-AC-3
    Format/Info : Enhanced AC-3
    Commercial name : Dolby Digital Plus
    Codec ID : A_EAC3
    Duration : 1 h 50 min
    Bit rate mode : Constant
    Bit rate : 224 kb/s
    Channel(s) : 2 channels
    Channel layout : L R
    Sampling rate : 48.0 kHz
    Frame rate : 31.250 FPS (1536 SPF)
    Compression mode : Lossy
    Stream size : 177 MiB (5%)
    Language : English
    Service kind : Complete Main
    Default : Yes
    Forced : No

    Text
    ID : 3
    Format : UTF-8
    Codec ID : S_TEXT/UTF8
    Codec ID/Info : UTF-8 Plain Text
    Duration : 1 h 48 min
    Bit rate : 60 b/s
    Count of elements : 1870
    Stream size : 47.9 KiB (0%)
    Language : English
    Default : No
    Forced : No






    本帖子中包含更多资源

    您需要 登录 才可以下载或查看,没有帐号?立即注册

    x
    回复

    使用道具 举报

    您需要登录后才可以回帖 登录 | 立即注册

    本版积分规则

    QQ|广告友链合作联系QQ:1374229927|小黑屋|威酷高清影视论坛

    GMT+8, 2021-4-20 09:35 , Processed in 0.016584 second(s), 12 queries , Gzip On, MemCached On.

    Powered by Discuz! X3.4

    Copyright © 2001-2021, Tencent Cloud.

    快速回复 返回顶部 返回列表