威酷高清论坛

 找回密码
 立即注册
查看: 22|回复: 0
收起左侧

[剧情] 热土 Goodland.2017.1080p.AMZN.WEBRip.AAC2.0.x264-alfaHD 3.81GB

[复制链接]
  • TA的每日心情
    慵懒
    2021-3-23 22:13
  • 签到天数: 13 天

    [LV.3]偶尔看看II

    卡西迪奥 发表于 2021-4-8 20:52:41 | 显示全部楼层 |阅读模式


    ◎译  名 热土
    ◎片  名 Goodland
    ◎年  代 2018
    ◎产  地 美国
    ◎类  别 悬疑 / 惊悚 / 犯罪
    ◎语  言 英语
    ◎上映日期 2018-05-11(美国)
    ◎IMDb评分 5.2/10 from 399 users
    ◎IMDb链接 https://www.imdb.com/title/tt5022560/
    ◎豆瓣评分 /10 from 0 users
    ◎豆瓣链接 https://movie.douban.com/subject/30334735/
    ◎片  长 84分钟
    ◎主  演 Matt Weiss

    ◎简  介

      When the body of a drifter is discovered the same day a photographer arrives in a small farming community, the local sheriff is left to piece together a string of events that don't quite add up.
    Video
    ID : 1
    Format : AVC
    Format/Info : Advanced Video Codec
    Format profile : High@L4
    Format settings : CABAC / 4 Ref Frames
    Format settings, CABAC : Yes
    Format settings, Reference frames : 4 frames
    Codec ID : V_MPEG4/ISO/AVC
    Duration : 1 h 25 min
    Bit rate mode : Constant
    Bit rate : 6 252 kb/s
    Nominal bit rate : 10 000 kb/s
    Width : 1 920 pixels
    Height : 816 pixels
    Display aspect ratio : 2.35:1
    Frame rate mode : Constant
    Frame rate : 23.976 (24000/1001/189150) FPS
    Color space : YUV
    Chroma subsampling : 4:2:0
    Bit depth : 8 bits
    Scan type : Progressive
    Bits/(Pixel*Frame) : 0.166
    Stream size : 3.74 GiB (98%)
    Default : Yes
    Forced : No
    Color range : Limited
    Color primaries : BT.709
    Transfer characteristics : BT.709
    Matrix coefficients : BT.709

    Audio
    ID : 2
    Format : AAC LC
    Format/Info : Advanced Audio Codec Low Complexity
    Codec ID : A_AAC-2
    Duration : 1 h 25 min
    Bit rate : 125 kb/s
    Channel(s) : 2 channels
    Channel layout : L R
    Sampling rate : 48.0 kHz
    Frame rate : 46.875 FPS (1024 SPF)
    Compression mode : Lossy
    Stream size : 76.8 MiB (2%)
    Language : English
    Default : Yes
    Forced : No

    Text #1
    ID : 3
    Format : UTF-8
    Codec ID : S_TEXT/UTF8
    Codec ID/Info : UTF-8 Plain Text
    Duration : 1 h 19 min
    Bit rate : 52 b/s
    Count of elements : 1072
    Stream size : 30.4 KiB (0%)
    Language : English
    Default : No
    Forced : No

    Text #2
    ID : 4
    Format : UTF-8
    Codec ID : S_TEXT/UTF8
    Codec ID/Info : UTF-8 Plain Text
    Duration : 1 h 22 min
    Bit rate : 54 b/s
    Count of elements : 1229
    Stream size : 32.9 KiB (0%)
    Title : SDH
    Language : English
    Default : No
    Forced : No






    本帖子中包含更多资源

    您需要 登录 才可以下载或查看,没有帐号?立即注册

    x
    回复

    使用道具 举报

    您需要登录后才可以回帖 登录 | 立即注册

    本版积分规则

    QQ|广告友链合作联系QQ:1374229927|小黑屋|威酷高清影视论坛

    GMT+8, 2021-4-20 08:23 , Processed in 0.015606 second(s), 11 queries , Gzip On, MemCached On.

    Powered by Discuz! X3.4

    Copyright © 2001-2021, Tencent Cloud.

    快速回复 返回顶部 返回列表