威酷高清论坛

 找回密码
 立即注册
查看: 25|回复: 0
收起左侧

[恐怖] 女巫清算/罪孽 The.Reckoning.2020.1080p.BluRay.x264-PiGNUS 10.09GB

[复制链接]
  • TA的每日心情
    慵懒
    2021-3-23 22:13
  • 签到天数: 13 天

    [LV.3]偶尔看看II

    卡西迪奥 发表于 2021-4-8 20:59:43 | 显示全部楼层 |阅读模式


    ◎译  名 女巫清算/罪孽
    ◎片  名 The Reckoning
    ◎年  代 2020
    ◎产  地 英国
    ◎类  别 恐怖
    ◎语  言 英语
    ◎上映日期 2020-08-20(国际幻想影展) / 2021-02-05(美国)
    ◎IMDb评分 4.6/10 from 1094 users
    ◎IMDb链接 https://www.imdb.com/title/tt9182964/
    ◎豆瓣评分 5.4/10 from 290 users
    ◎豆瓣链接 https://movie.douban.com/subject/34931877/
    ◎片  长 110分钟
    ◎导  演 尼尔·马歇尔 Neil Marshall
    ◎编  剧 夏洛特·柯克 Charlotte Kirk
    ◎主  演 西恩·帕特维 Sean Pertwee
          夏洛特·柯克 Charlotte Kirk
          史蒂芬·威丁顿 Steven Waddington
          乔·安德森 Joe Anderson
          里昂·奥肯登 Leon Ockenden

    ◎标  签 恐怖 | 惊悚 | 英国 | 英国电影 | 2020 | 尼尔·马歇尔 | 西恩帕特维 | 2021

    ◎简  介

      Co-written by lead Charlotte Kirk and Edward Evers-Swindell, the 1665 New England set horror film stars Kirk as Evelyn Haverstock, whose husband (Anderson) commits suicide, finding herself falsely accused of witchcraft after rejecting the advances of her landlord.
    Video
    ID : 1
    Format : AVC
    Format/Info : Advanced Video Codec
    Format profile : High@L4.1
    Format settings : CABAC / 5 Ref Frames
    Format settings, CABAC : Yes
    Format settings, Reference frames : 5 frames
    Codec ID : V_MPEG4/ISO/AVC
    Duration : 1 h 50 min
    Bit rate : 9 094 kb/s
    Width : 1 920 pixels
    Height : 804 pixels
    Display aspect ratio : 2.40:1
    Frame rate mode : Constant
    Frame rate : 23.976 (24000/1001/189150) FPS
    Color space : YUV
    Chroma subsampling : 4:2:0
    Bit depth : 8 bits
    Scan type : Progressive
    Bits/(Pixel*Frame) : 0.246
    Stream size : 7.05 GiB (70%)
    Writing library : x264 core 161 r3048 b86ae3c
    Encoding settings : cabac=1 / ref=5 / deblock=1:-3:-3 / analyse=0x3:0x133 / me=umh / subme=9 / psy=1 / psy_rd=1.00:0.00 / mixed_ref=1 / me_range=16 / chroma_me=1 / trellis=2 / 8x8dct=1 / cqm=0 / deadzone=21,11 / fast_pskip=1 / chroma_qp_offset=-2 / threads=25 / lookahead_threads=2 / sliced_threads=0 / nr=0 / decimate=1 / interlaced=0 / bluray_compat=0 / constrained_intra=0 / bframes=3 / b_pyramid=2 / b_adapt=2 / b_bias=0 / direct=3 / weightb=1 / open_gop=0 / weightp=2 / keyint=250 / keyint_min=23 / scenecut=40 / intra_refresh=0 / rc_lookahead=60 / rc=crf / mbtree=1 / crf=15.5 / qcomp=0.60 / qpmin=0 / qpmax=69 / qpstep=4 / ip_ratio=1.40 / aq=1:1.00
    Default : Yes
    Forced : No

    Audio
    ID : 2
    Format : DTS XLL
    Format/Info : Digital Theater Systems
    Commercial name : DTS-HD Master Audio
    Codec ID : A_DTS
    Duration : 1 h 50 min
    Bit rate mode : Variable
    Bit rate : 3 910 kb/s
    Channel(s) : 6 channels
    Channel layout : C L R Ls Rs LFE
    Sampling rate : 48.0 kHz
    Frame rate : 93.750 FPS (512 SPF)
    Bit depth : 24 bits
    Compression mode : Lossless
    Stream size : 3.03 GiB (30%)
    Language : English
    Default : Yes
    Forced : No

    Text #1
    ID : 3
    Format : PGS
    Muxing mode : zlib
    Codec ID : S_HDMV/PGS
    Codec ID/Info : Picture based subtitle format used on BDs/HD-DVDs
    Duration : 1 h 44 min
    Bit rate : 18.6 kb/s
    Count of elements : 2486
    Stream size : 13.9 MiB (0%)
    Title : English SDH
    Language : English
    Default : No
    Forced : No

    Text #2
    ID : 4
    Format : PGS
    Muxing mode : zlib
    Codec ID : S_HDMV/PGS
    Codec ID/Info : Picture based subtitle format used on BDs/HD-DVDs
    Duration : 1 h 45 min
    Bit rate : 18.0 kb/s
    Count of elements : 2244
    Stream size : 13.5 MiB (0%)
    Title : French
    Language : French
    Default : No
    Forced : No

    Text #3
    ID : 5
    Format : PGS
    Muxing mode : zlib
    Codec ID : S_HDMV/PGS
    Codec ID/Info : Picture based subtitle format used on BDs/HD-DVDs
    Duration : 1 h 45 min
    Bit rate : 17.4 kb/s
    Count of elements : 2240
    Stream size : 13.1 MiB (0%)
    Title : Spanish
    Language : Spanish
    Default : No
    Forced : No

    Menu
    00:00:00.000 : Chapter 01
    00:09:22.395 : Chapter 02
    00:21:25.409 : Chapter 03
    00:36:21.971 : Chapter 04
    00:46:47.680 : Chapter 05
    00:57:44.836 : Chapter 06
    01:14:35.513 : Chapter 07
    01:46:29.133 : Chapter 08
    01:50:55.774 : Chapter 09






    本帖子中包含更多资源

    您需要 登录 才可以下载或查看,没有帐号?立即注册

    x
    回复

    使用道具 举报

    您需要登录后才可以回帖 登录 | 立即注册

    本版积分规则

    QQ|广告友链合作联系QQ:1374229927|小黑屋|威酷高清影视论坛

    GMT+8, 2021-4-20 09:18 , Processed in 0.017358 second(s), 12 queries , Gzip On, MemCached On.

    Powered by Discuz! X3.4

    Copyright © 2001-2021, Tencent Cloud.

    快速回复 返回顶部 返回列表