威酷高清论坛

 找回密码
 立即注册
查看: 51|回复: 0
收起左侧

[动作] 俄罗斯突袭 Russkiy.Reyd.2020.1080p.BluRay.x264-RUSTED 8.52GB

[复制链接]
  • TA的每日心情
    慵懒
    2021-3-23 22:13
  • 签到天数: 13 天

    [LV.3]偶尔看看II

    卡西迪奥 发表于 2021-4-8 21:09:08 | 显示全部楼层 |阅读模式


    ◎译  名 俄罗斯突袭/Russian Raid/Russkiy Reyd
    ◎片  名 Русский рейд
    ◎年  代 2020
    ◎产  地 俄罗斯
    ◎类  别 动作
    ◎语  言 俄语
    ◎上映日期 2020-10-01(俄罗斯)
    ◎IMDb评分 5.5/10 from 188 users
    ◎IMDb链接 https://www.imdb.com/title/tt12425868/
    ◎豆瓣评分 /10 from 0 users
    ◎豆瓣链接 https://movie.douban.com/subject/35274269/
    ◎片  长 103分钟
    ◎主  演 艾文·科蒂克 Ivan Kotik

    ◎标  签 动作 | 俄罗斯 | 犯罪 | 军事 | 桑搏 | 战争 | 人性 | 2020

    ◎简  介

      前俄罗斯特种部队干员尼基塔受雇去消灭一家工厂里庞大的私人保安力量,这样他那可疑的雇主就能要挟工厂老板。但尼基塔和跟随他的一群熟练战士却发现拥有这家工厂的其实是一个与俄罗斯军方有染的危险军阀。
    Video
    ID : 1
    Format : AVC
    Format/Info : Advanced Video Codec
    Format profile : High@L4.1
    Format settings : CABAC / 5 Ref Frames
    Format settings, CABAC : Yes
    Format settings, Reference frames : 5 frames
    Codec ID : V_MPEG4/ISO/AVC
    Duration : 1 h 43 min
    Bit rate : 9 341 kb/s
    Width : 1 920 pixels
    Height : 800 pixels
    Display aspect ratio : 2.40:1
    Frame rate mode : Constant
    Frame rate : 24.000 FPS
    Color space : YUV
    Chroma subsampling : 4:2:0
    Bit depth : 8 bits
    Scan type : Progressive
    Bits/(Pixel*Frame) : 0.253
    Stream size : 6.74 GiB (79%)
    Writing library : x264 core 161 r3048 b86ae3c
    Encoding settings : cabac=1 / ref=5 / deblock=1:-3:-3 / analyse=0x3:0x133 / me=umh / subme=9 / psy=1 / psy_rd=1.00:0.00 / mixed_ref=1 / me_range=16 / chroma_me=1 / trellis=2 / 8x8dct=1 / cqm=0 / deadzone=21,11 / fast_pskip=0 / chroma_qp_offset=-2 / threads=24 / lookahead_threads=2 / sliced_threads=0 / nr=0 / decimate=0 / interlaced=0 / bluray_compat=0 / constrained_intra=0 / bframes=3 / b_pyramid=2 / b_adapt=2 / b_bias=0 / direct=3 / weightb=1 / open_gop=0 / weightp=2 / keyint=250 / keyint_min=24 / scenecut=40 / intra_refresh=0 / rc=crf / mbtree=0 / crf=17.0 / qcomp=0.60 / qpmin=0 / qpmax=69 / qpstep=4 / ip_ratio=1.40 / pb_ratio=1.30 / aq=3:0.70
    Language : Russian
    Default : Yes
    Forced : No
    Color range : Limited
    Matrix coefficients : BT.709

    Audio
    ID : 2
    Format : DTS XLL
    Format/Info : Digital Theater Systems
    Commercial name : DTS-HD Master Audio
    Codec ID : A_DTS
    Duration : 1 h 43 min
    Bit rate mode : Variable
    Bit rate : 2 461 kb/s
    Channel(s) : 6 channels
    Channel layout : C L R Ls Rs LFE
    Sampling rate : 48.0 kHz
    Frame rate : 93.750 FPS (512 SPF)
    Bit depth : 16 bits
    Compression mode : Lossless
    Stream size : 1.78 GiB (21%)
    Language : Russian
    Default : Yes
    Forced : No

    Text #1
    ID : 3
    Format : UTF-8
    Codec ID : S_TEXT/UTF8
    Codec ID/Info : UTF-8 Plain Text
    Duration : 1 h 36 min
    Bit rate : 34 b/s
    Count of elements : 860
    Stream size : 24.5 KiB (0%)
    Title : English (SRT)
    Language : English
    Default : Yes
    Forced : Yes

    Text #2
    ID : 4
    Format : PGS
    Muxing mode : zlib
    Codec ID : S_HDMV/PGS
    Codec ID/Info : Picture based subtitle format used on BDs/HD-DVDs
    Duration : 1 h 36 min
    Bit rate : 22.6 kb/s
    Count of elements : 1484
    Stream size : 15.5 MiB (0%)
    Title : English
    Language : English
    Default : No
    Forced : No

    Menu
    00:00:00.000 : ru:Chapter 01
    00:09:10.167 : ru:Chapter 02
    00:18:28.083 : ru:Chapter 03
    00:29:22.292 : ru:Chapter 04
    00:37:34.792 : ru:Chapter 05
    00:45:55.292 : ru:Chapter 06
    01:01:05.917 : ru:Chapter 07
    01:10:19.917 : ru:Chapter 08
    01:23:56.250 : ru:Chapter 09
    01:37:38.917 : ru:Chapter 10






    本帖子中包含更多资源

    您需要 登录 才可以下载或查看,没有帐号?立即注册

    x
    回复

    使用道具 举报

    您需要登录后才可以回帖 登录 | 立即注册

    本版积分规则

    QQ|广告友链合作联系QQ:1374229927|小黑屋|威酷高清影视论坛

    GMT+8, 2021-4-20 08:50 , Processed in 0.016349 second(s), 12 queries , Gzip On, MemCached On.

    Powered by Discuz! X3.4

    Copyright © 2001-2021, Tencent Cloud.

    快速回复 返回顶部 返回列表