威酷高清论坛

 找回密码
 立即注册
查看: 13|回复: 0
收起左侧

[剧情] 失魂记 Damn.Yankees.1958.1080p.BluRay.x264.FLAC.2.0-NOGRP 10.74GB

[复制链接]
  • TA的每日心情
    慵懒
    2021-3-23 22:13
  • 签到天数: 13 天

    [LV.3]偶尔看看II

    卡西迪奥 发表于 2021-4-8 21:11:00 | 显示全部楼层 |阅读模式


    ◎译  名 失魂记
    ◎片  名 Damn Yankees!
    ◎年  代 1958
    ◎产  地 美国
    ◎类  别 喜剧 / 歌舞 / 运动
    ◎语  言 英语
    ◎上映日期 1958-09-26(美国)
    ◎IMDb评分 7.1/10 from 2514 users
    ◎IMDb链接 https://www.imdb.com/title/tt0051516/
    ◎豆瓣评分 /10 from 0 users
    ◎豆瓣链接 https://movie.douban.com/subject/1305150/
    ◎片  长 111 分钟
    ◎导  演 乔治·艾博特 George Abbott / 斯坦利·多南 Stanley Donen
    ◎编  剧 乔治·艾博特 George Abbott / 道格拉斯·沃洛普 Douglass Wallop
    ◎主  演 泰布·亨特 Tab Hunter
          格温·沃顿 Gwen Verdon
          雷·沃尔斯顿 Ray Walston
          拉斯·布朗 Russ Brown
          詹姆斯·科马驰 James Komack
          珍·斯泰普尔顿 Jean Stapleton
          菲尔·阿诺德 Phil Arnold
          内斯顿布什 Nesdon Booth
          威廉·福西特 William Fawcett
          鲍勃·福斯 Bob Fosse
          斯图尔特·霍姆斯 Stuart Holmes
          马修麦凯 Matthew McCue
          杰弗里·塞尔 Jeffrey Sayre
          哈里·威尔逊 Harry Wilson
          Shannon Bolin
          Nathaniel Frey
          Rae Allen
          Robert Shafer
          Albert Linville
          Roy Sievers
          威廉·亚当斯 William Adams
          Robert Banas
          John Barton
          Yogi Berra
          Allen Case
          Elizabeth Howell
          Perk Lazelle
          Mickey Mantle
          Joseph Mell
          Mike Morelli
          Art Passarella
          John Roy
          Frank J. Scannell
          伯纳德·赛尔 Bernard Sell
          Lucille Sewall
          Fred Sherman
          Moose Skowron
          诺尔曼·斯蒂凡斯 Norman Stevans
          Robert Strong
          Arthur Tovey
          Ralph Volkie
          查尔斯·瓦根海姆 Charles Wagenheim
          Jack Carr

    ◎标  签 歌舞 | 美国 | 美国电影 | 电影 | 歌舞片 | 爱情 | 1950s | StanleyDonen

    ◎简  介

      Film adaptation of the George Abbott Broadway musical about a Washington Senators fan who makes a pact with the Devil to help his baseball team win the league pennant.
      
      A frustrated fan of the hopeless Washington Senators makes a pact with the Devil to help the baseball team win the league pennant.

    ◎获奖情况

      第31届奥斯卡金像奖 ?(1959)
      歌舞片最佳配乐(提名) 雷·海因多夫
      
      第16届金球奖 ?(1959)
      电影类最佳音乐片(提名)
    Video
    ID : 1
    Format : AVC
    Format/Info : Advanced Video Codec
    Format profile : High@L4.1
    Format settings : CABAC / 4 Ref Frames
    Format settings, CABAC : Yes
    Format settings, Reference frames : 4 frames
    Codec ID : V_MPEG4/ISO/AVC
    Duration : 1 h 50 min
    Bit rate : 13.5 Mb/s
    Width : 1 920 pixels
    Height : 1 036 pixels
    Display aspect ratio : 1.85:1
    Frame rate mode : Constant
    Frame rate : 23.976 (24000/1001/189150) FPS
    Color space : YUV
    Chroma subsampling : 4:2:0
    Bit depth : 8 bits
    Scan type : Progressive
    Bits/(Pixel*Frame) : 0.284
    Stream size : 10.4 GiB (97%)
    Writing library : x264 core 157 r2932 303c484
    Encoding settings : cabac=1 / ref=4 / deblock=1:-3:-3 / analyse=0x3:0x133 / me=umh / subme=11 / psy=1 / psy_rd=1.02:0.00 / mixed_ref=1 / me_range=32 / chroma_me=1 / trellis=2 / 8x8dct=1 / cqm=0 / deadzone=21,11 / fast_pskip=0 / chroma_qp_offset=-2 / threads=32 / lookahead_threads=8 / sliced_threads=0 / nr=0 / decimate=0 / interlaced=0 / bluray_compat=0 / constrained_intra=0 / bframes=16 / b_pyramid=2 / b_adapt=2 / b_bias=0 / direct=3 / weightb=1 / open_gop=0 / weightp=2 / keyint=250 / keyint_min=23 / scenecut=40 / intra_refresh=0 / rc_lookahead=250 / rc=crf / mbtree=0 / crf=20.0 / qcomp=0.60 / qpmin=0 / qpmax=69 / qpstep=4 / vbv_maxrate=62500 / vbv_bufsize=78125 / crf_max=0.0 / nal_hrd=none / filler=0 / ip_ratio=1.30 / pb_ratio=1.20 / aq=3:0.80
    Language : English
    Default : Yes
    Forced : No
    Color range : Limited
    Color primaries : BT.709
    Matrix coefficients : BT.709

    Audio
    ID : 2
    Format : FLAC
    Format/Info : Free Lossless Audio Codec
    Codec ID : A_FLAC
    Duration : 1 h 50 min
    Bit rate mode : Variable
    Bit rate : 367 kb/s
    Channel(s) : 2 channels
    Channel layout : L R
    Sampling rate : 48.0 kHz
    Frame rate : 11.719 FPS (4096 SPF)
    Bit depth : 16 bits
    Compression mode : Lossless
    Stream size : 290 MiB (3%)
    Writing library : libFLAC 1.2.1 (UTC 2007-09-17)
    Language : English
    Default : Yes
    Forced : No

    Text #1
    ID : 3
    Format : UTF-8
    Codec ID : S_TEXT/UTF8
    Codec ID/Info : UTF-8 Plain Text
    Duration : 1 h 49 min
    Bit rate : 71 b/s
    Count of elements : 1974
    Stream size : 57.4 KiB (0%)
    Title : SRT
    Language : English
    Default : Yes
    Forced : No

    Text #2
    ID : 4
    Format : PGS
    Muxing mode : zlib
    Codec ID : S_HDMV/PGS
    Codec ID/Info : Picture based subtitle format used on BDs/HD-DVDs
    Duration : 1 h 50 min
    Bit rate : 41.2 kb/s
    Count of elements : 4286
    Stream size : 32.5 MiB (0%)
    Language : English
    Default : No
    Forced : No

    Menu
    00:00:00.000 : en:Chapter 1
    00:00:53.262 : en:Chapter 2
    00:03:09.606 : en:Chapter 3
    00:05:43.760 : en:Chapter 4
    00:13:16.546 : en:Chapter 5
    00:15:45.570 : en:Chapter 6
    00:16:27.320 : en:Chapter 7
    00:19:04.268 : en:Chapter 8
    00:22:00.861 : en:Chapter 9
    00:22:44.196 : en:Chapter 10
    00:26:04.938 : en:Chapter 11
    00:30:41.673 : en:Chapter 12
    00:32:43.503 : en:Chapter 13
    00:36:08.541 : en:Chapter 14
    00:39:05.218 : en:Chapter 15
    00:40:42.357 : en:Chapter 16
    00:43:48.000 : en:Chapter 17
    00:46:03.719 : en:Chapter 18
    00:46:47.513 : en:Chapter 19
    00:48:37.998 : en:Chapter 20
    00:50:40.579 : en:Chapter 21
    00:54:09.872 : en:Chapter 22
    00:56:28.051 : en:Chapter 23
    00:57:37.871 : en:Chapter 24
    01:01:53.585 : en:Chapter 25
    01:06:18.308 : en:Chapter 26
    01:07:39.222 : en:Chapter 27
    01:08:52.170 : en:Chapter 28
    01:11:26.699 : en:Chapter 29
    01:12:39.063 : en:Chapter 30
    01:15:53.591 : en:Chapter 31
    01:18:50.809 : en:Chapter 32
    01:22:57.890 : en:Chapter 33
    01:24:05.540 : en:Chapter 34
    01:26:17.089 : en:Chapter 35
    01:29:43.753 : en:Chapter 36
    01:31:55.385 : en:Chapter 37
    01:35:03.781 : en:Chapter 38
    01:37:57.121 : en:Chapter 39
    01:40:52.046 : en:Chapter 40
    01:43:01.425 : en:Chapter 41
    01:45:38.457 : en:Chapter 42
    01:47:35.449 : en:Chapter 43
    01:49:09.042 : en:Chapter 44






    本帖子中包含更多资源

    您需要 登录 才可以下载或查看,没有帐号?立即注册

    x
    回复

    使用道具 举报

    您需要登录后才可以回帖 登录 | 立即注册

    本版积分规则

    QQ|广告友链合作联系QQ:1374229927|小黑屋|威酷高清影视论坛

    GMT+8, 2021-4-20 10:08 , Processed in 0.019483 second(s), 12 queries , Gzip On, MemCached On.

    Powered by Discuz! X3.4

    Copyright © 2001-2021, Tencent Cloud.

    快速回复 返回顶部 返回列表