威酷高清论坛

 找回密码
 立即注册
查看: 19|回复: 0
收起左侧

[剧情] 来自蒂姆·巴克利的问候 2012.1080p.AMZN.WEBRip.DDP5.1.x264-alfaHD 7.27GB

[复制链接]
  • TA的每日心情
    慵懒
    2021-3-23 22:13
  • 签到天数: 13 天

    [LV.3]偶尔看看II

    卡西迪奥 发表于 2021-4-8 21:13:03 | 显示全部楼层 |阅读模式


    ◎译  名 来自蒂姆·巴克利的问候
    ◎片  名 Greetings from Tim Buckley
    ◎年  代 2012
    ◎产  地 美国
    ◎类  别 剧情
    ◎语  言 英语
    ◎上映日期 2012-08-18
    ◎IMDb评分 6.1/10 from 1575 users
    ◎IMDb链接 https://www.imdb.com/title/tt1823125/
    ◎豆瓣评分 7.1/10 from 59 users
    ◎豆瓣链接 https://movie.douban.com/subject/6958578/
    ◎片  长 99分钟
    ◎导  演 丹尼尔·阿尔格兰特 Daniel Algrant
    ◎编  剧 丹尼尔·阿尔格兰特 Daniel Algrant
    ◎主  演 佩恩·拜德格雷 Penn Badgley
          伊莫琴·普茨 Imogen Poots
          威廉姆·赛德勒 William Sadler
          诺贝特·里奥·布茨 Norbert Leo Butz
          Isabelle McNally
          本·罗森菲尔德 Ben Rosenfield

    ◎标  签 美国 | 音乐 | 美国电影 | 2012 | 文艺 | 电影 | 传记片 | 2013

    ◎简  介

      音乐传记片《greetings from tim buckley》的故事取材自Jeff Buckley1991年在纪念父亲的纽约圣安教堂(St. Ann’s Church)音乐会上的首秀。当时他并不是正式演出者,在简单地表达了对父亲的敬意后,演唱了父亲的歌曲 I never asked to be your mountain&once i was 打动了全场观众,也成就了自己的歌唱事业。
      
      本片将以这次演唱会筹备过程中Jeff Buckley的经历为主线,包括他与参加音乐会筹备的一个女孩的恋情,以及他对父亲由怨恨到理解的心路历程。
    Video
    ID : 1
    Format : AVC
    Format/Info : Advanced Video Codec
    Format profile : High@L4
    Format settings : CABAC / 4 Ref Frames
    Format settings, CABAC : Yes
    Format settings, Reference frames : 4 frames
    Format settings, GOP : M=4, N=48
    Codec ID : V_MPEG4/ISO/AVC
    Duration : 1 h 44 min
    Bit rate mode : Constant
    Bit rate : 10 000 kb/s
    Width : 1 920 pixels
    Height : 1 080 pixels
    Display aspect ratio : 16:9
    Frame rate mode : Constant
    Frame rate : 23.976 (24000/1001/189150) FPS
    Color space : YUV
    Chroma subsampling : 4:2:0
    Bit depth : 8 bits
    Scan type : Progressive
    Bits/(Pixel*Frame) : 0.201
    Stream size : 7.09 GiB (97%)
    Default : Yes
    Forced : No
    Color range : Limited
    Color primaries : BT.709
    Transfer characteristics : BT.709
    Matrix coefficients : BT.709

    Audio
    ID : 2
    Format : E-AC-3
    Format/Info : Enhanced AC-3
    Commercial name : Dolby Digital Plus
    Codec ID : A_EAC3
    Duration : 1 h 44 min
    Bit rate mode : Constant
    Bit rate : 256 kb/s
    Channel(s) : 6 channels
    Channel layout : L R C LFE Ls Rs
    Sampling rate : 48.0 kHz
    Frame rate : 31.250 FPS (1536 SPF)
    Compression mode : Lossy
    Stream size : 192 MiB (3%)
    Language : English
    Service kind : Complete Main
    Default : Yes
    Forced : No

    Text
    ID : 3
    Format : UTF-8
    Codec ID : S_TEXT/UTF8
    Codec ID/Info : UTF-8 Plain Text
    Duration : 1 h 38 min
    Bit rate : 42 b/s
    Count of elements : 1066
    Stream size : 30.3 KiB (0%)
    Language : English
    Default : No
    Forced : No






    本帖子中包含更多资源

    您需要 登录 才可以下载或查看,没有帐号?立即注册

    x
    回复

    使用道具 举报

    您需要登录后才可以回帖 登录 | 立即注册

    本版积分规则

    QQ|广告友链合作联系QQ:1374229927|小黑屋|威酷高清影视论坛

    GMT+8, 2021-4-20 08:55 , Processed in 0.016539 second(s), 12 queries , Gzip On, MemCached On.

    Powered by Discuz! X3.4

    Copyright © 2001-2021, Tencent Cloud.

    快速回复 返回顶部 返回列表