威酷高清论坛

 找回密码
 立即注册
查看: 16|回复: 0
收起左侧

[WEB-4K] 石中剑 The.Sword.In.the.Stone.1963.2160p.WEB-DL.DD5.1.DV.MP4.x265-FLUX 13.97GB

[复制链接]
  • TA的每日心情
    擦汗
    2021-6-17 11:37
  • 签到天数: 17 天

    [LV.4]偶尔看看III

    卡西迪奥 发表于 2021-9-14 19:27:45 | 显示全部楼层 |阅读模式

    ◎译  名 石中剑/La espada en la piedra
    ◎片  名 The Sword in the Stone
    ◎年  代 1963
    ◎产  地 美国
    ◎类  别 动画 / 家庭 / 荒诞
    ◎语  言 英语
    ◎上映日期 1963-12-25(美国)
    ◎豆瓣评分 8.0/10 from 4585 users
    ◎豆瓣链接 https://movie.douban.com/subject/1306873/
    ◎片  长 80分钟
    ◎导  演 沃夫冈·雷瑟曼 Wolfgang Reitherman
    ◎编  剧 比尔·皮特 Bill Peet / T·H·怀特 T.H. White
    ◎主  演 塞巴斯蒂安·卡伯特 Sebastian Cabot
          卡尔·斯温森 Karl Swenson
          瑞奇·索伦森 Rickie Sorensen
          玛莎·温特沃思 Martha Wentworth
          瑟尔·莱文斯克洛福特 Thurl Ravenscroft
          阿兰·纳皮尔 Alan Napier
          James MacDonald James MacDonald
          芭芭拉·乔·艾伦 Barbara Jo Allen
          诺曼·阿尔登 Norman Alden
          朱尼乌斯·马修斯 Junius Matthews

    ◎标  签 动画 | 美国 | Disney | 迪斯尼 | 迪士尼 | 经典 | 石中剑 | 美国动画

    ◎简  介

      当小华特从屋顶掉进了梅林法师的家中时,就已注定他传奇的命运了。神奇的梅林法师是如何教导华特的呢?不小心撞进女巫家的华特会不会有危险呢?伦敦的比武大赛就要开始了,谁有能力拔起石头中的剑便能成为国王,这个消息传遍全国,一些武士也希望自己有一天能成为国王,而纷纷到广场拔剑。对小华特而言,他的奇遇才刚开始,他轻而易举的将石中剑拔起,因之成为日后的亚瑟王。

    ◎获奖情况

      第36届奥斯卡金像奖 ?(1964)
      最佳改编配乐(提名) 乔治·布伦斯
    Video
    ID : 1
    Format : HEVC
    Format/Info : High Efficiency Video Coding
    Format profile : Main 10@L5@High
    HDR format : Dolby Vision, Version 1.0, dvhe.05.06, BL+RPU
    Codec ID : dvhe
    Codec ID/Info : High Efficiency Video Coding with Dolby Vision
    Duration : 1 h 19 min
    Bit rate : 24.7 Mb/s
    Width : 3 776 pixels
    Original width : 3 772 pixels
    Height : 2 160 pixels
    Display aspect ratio : 16:9
    Original display aspect ratio : 16:9
    Frame rate mode : Constant
    Frame rate : 23.976 (23976/1000/189150) FPS
    Color space : YUV
    Chroma subsampling : 4:2:0
    Bit depth : 10 bits
    Bits/(Pixel*Frame) : 0.127
    Stream size : 13.8 GiB (98%)
    Default : Yes
    Alternate group : 1
    Encoded date : UTC 2021-09-04 16:20:04
    Tagged date : UTC 2021-09-04 16:22:44
    Codec configuration box : hvcC+dvcC

    Audio
    ID : 2
    Format : AC-3
    Format/Info : Audio Coding 3
    Commercial name : Dolby Digital
    Codec ID : ac-3
    Duration : 1 h 19 min
    Bit rate mode : Constant
    Bit rate : 384 kb/s
    Maximum bit rate : 406 kb/s
    Channel(s) : 6 channels
    Channel layout : L R C LFE Ls Rs
    Sampling rate : 48.0 kHz
    Frame rate : 31.250 FPS (1536 SPF)
    Compression mode : Lossy
    Stream size : 219 MiB (2%)
    Title : English (US)
    Language : English
    Service kind : Complete Main
    Encoded date : UTC 2021-09-04 16:18:23
    Tagged date : UTC 2021-09-04 16:22:44

    Text #1
    ID : 3
    Format : Timed Text
    Codec ID : tx3g
    Duration : 1 h 19 min
    Bit rate mode : Variable
    Bit rate : 88 b/s
    Stream size : 51.3 KiB (0%)
    Title : English
    Language : English
    Forced : No
    Encoded date : UTC 2021-09-04 16:22:42
    Tagged date : UTC 2021-09-04 16:22:44

    Text #2
    ID : 4
    Format : Timed Text
    Codec ID : tx3g
    Duration : 1 h 19 min
    Bit rate mode : Variable
    Bit rate : 101 b/s
    Stream size : 59.0 KiB (0%)
    Title : English [CC]
    Language : English
    Forced : No
    Encoded date : UTC 2021-09-04 16:22:42
    Tagged date : UTC 2021-09-04 16:22:44

    Text #3
    ID : 5
    Format : Timed Text
    Codec ID : tx3g
    Duration : 1 h 19 min
    Bit rate mode : Variable
    Bit rate : 64 b/s
    Stream size : 37.2 KiB (0%)
    Title : 中文(繁體)
    Language : Chinese
    Forced : No
    Encoded date : UTC 2021-09-04 16:22:42
    Tagged date : UTC 2021-09-04 16:22:44

    Text #4
    ID : 6
    Format : Timed Text
    Codec ID : tx3g
    Duration : 1 h 19 min
    Bit rate mode : Variable
    Bit rate : 63 b/s
    Stream size : 37.0 KiB (0%)
    Title : Espa?ol (Latinoamérica)
    Language : Spanish
    Forced : No
    Encoded date : UTC 2021-09-04 16:22:43
    Tagged date : UTC 2021-09-04 16:22:44

    Text #5
    ID : 7
    Format : Timed Text
    Codec ID : tx3g
    Duration : 1 h 19 min
    Bit rate mode : Variable
    Bit rate : 71 b/s
    Stream size : 41.5 KiB (0%)
    Title : Fran?ais (France)
    Language : French
    Forced : No
    Encoded date : UTC 2021-09-04 16:22:43
    Tagged date : UTC 2021-09-04 16:22:44

    Text #6
    ID : 8
    Format : Timed Text
    Codec ID : tx3g
    Duration : 1 h 19 min
    Bit rate mode : Variable
    Bit rate : 69 b/s
    Stream size : 40.5 KiB (0%)
    Title : Bahasa Indonesia
    Language : Indonesian
    Forced : No
    Encoded date : UTC 2021-09-04 16:22:43
    Tagged date : UTC 2021-09-04 16:22:44

    Text #7
    ID : 9
    Format : Timed Text
    Codec ID : tx3g
    Duration : 1 h 19 min
    Bit rate mode : Variable
    Bit rate : 72 b/s
    Stream size : 41.9 KiB (0%)
    Title : Bahasa Melayu (Malaysia)
    Language : Malay
    Forced : No
    Encoded date : UTC 2021-09-04 16:22:43
    Tagged date : UTC 2021-09-04 16:22:44

    Text #8
    ID : 10
    Format : Timed Text
    Codec ID : tx3g
    Duration : 1 h 19 min
    Bit rate mode : Variable
    Bit rate : 112 b/s
    Stream size : 65.4 KiB (0%)
    Title : Русский
    Language : Russian
    Forced : No
    Encoded date : UTC 2021-09-04 16:22:43
    Tagged date : UTC 2021-09-04 16:22:44

    Text #9
    ID : 11
    Format : Timed Text
    Codec ID : tx3g
    Duration : 1 h 19 min
    Bit rate mode : Variable
    Bit rate : 132 b/s
    Stream size : 76.7 KiB (0%)
    Title : ???
    Language : Thai
    Forced : No
    Encoded date : UTC 2021-09-04 16:22:43
    Tagged date : UTC 2021-09-04 16:22:44

    Text #10
    ID : 12
    Format : Timed Text
    Codec ID : tx3g
    Duration : 1 h 19 min
    Bit rate mode : Variable
    Bit rate : 70 b/s
    Stream size : 40.9 KiB (0%)
    Title : Türk?e
    Language : Turkish
    Forced : No
    Encoded date : UTC 2021-09-04 16:22:44
    Tagged date : UTC 2021-09-04 16:22:44

    Menu
    00:00:00.000 : Chapter 1
    00:01:41.000 : Chapter 2
    00:08:43.000 : Chapter 3
    00:12:48.000 : Chapter 4
    00:17:01.000 : Chapter 5
    00:22:09.000 : Chapter 6
    00:26:23.000 : Chapter 7
    00:30:27.000 : Chapter 8
    00:38:06.000 : Chapter 9
    00:40:08.000 : Chapter 10
    00:49:13.000 : Chapter 11
    00:54:53.000 : Chapter 12
    00:56:48.000 : Chapter 13
    00:59:48.000 : Chapter 14
    01:04:12.000 : Chapter 15
    01:10:18.000 : Chapter 16
    01:15:38.000 : Chapter 17




    本帖子中包含更多资源

    您需要 登录 才可以下载或查看,没有帐号?立即注册

    x
    回复

    使用道具 举报

    您需要登录后才可以回帖 登录 | 立即注册

    本版积分规则

    QQ|广告友链合作联系QQ:1374229927|小黑屋|威酷高清影视论坛

    GMT+8, 2021-9-27 14:41 , Processed in 0.019083 second(s), 11 queries , Gzip On, MemCached On.

    Powered by Discuz! X3.4

    Copyright © 2001-2021, Tencent Cloud.

    快速回复 返回顶部 返回列表