威酷高清论坛

 找回密码
 立即注册
查看: 34|回复: 0
收起左侧

[动漫] 史酷比:勇敢面对 Straight.Outta.Nowhere.Scooby.Doo.Meets.Courage.the.Cowardly.Dog.2021.1080p.AMZN.WEBRip.DDP5.1.x264-NOGRP 2.87GB

[复制链接]
  • TA的每日心情
    擦汗
    2021-6-17 11:37
  • 签到天数: 17 天

    [LV.4]偶尔看看III

    卡西迪奥 发表于 2021-9-14 19:30:14 | 显示全部楼层 |阅读模式


    ◎译  名 史酷比:勇敢面对
    ◎片  名 Straight Outta Nowhere: Scooby-Doo! Meets Courage the Cowardly Dog
    ◎年  代 2021
    ◎产  地 美国
    ◎类  别 喜剧 / 动画 / 悬疑 / 冒险
    ◎上映日期 
    ◎豆瓣评分 /10 from 0 users
    ◎豆瓣链接 https://movie.douban.com/subject/35511009/

    ◎标  签 喜剧 | 动画

    ◎简  介

      The movie involves Scooby-Doo and his friends finding a strange object in the middle of Nowhere, Kansas, the backwoods hometown of Courage and his owners, Eustace and Muriel Bagge.
    Video
    ID : 1
    Format : AVC
    Format/Info : Advanced Video Codec
    Format profile : High@L4
    Format settings : CABAC / 4 Ref Frames
    Format settings, CABAC : Yes
    Format settings, Reference frames : 4 frames
    Codec ID : V_MPEG4/ISO/AVC
    Duration : 1 h 18 min
    Bit rate : 4 609 kb/s
    Width : 1 920 pixels
    Height : 1 080 pixels
    Display aspect ratio : 16:9
    Frame rate mode : Constant
    Frame rate : 23.976 (24000/1001/189150) FPS
    Color space : YUV
    Chroma subsampling : 4:2:0
    Bit depth : 8 bits
    Scan type : Progressive
    Bits/(Pixel*Frame) : 0.093
    Stream size : 2.52 GiB (88%)
    Default : Yes
    Forced : No
    Color range : Limited
    Color primaries : BT.709
    Transfer characteristics : BT.709
    Matrix coefficients : BT.709

    Audio
    ID : 2
    Format : E-AC-3
    Format/Info : Enhanced AC-3
    Commercial name : Dolby Digital Plus
    Codec ID : A_EAC3
    Duration : 1 h 18 min
    Bit rate mode : Constant
    Bit rate : 640 kb/s
    Channel(s) : 6 channels
    Channel layout : L R C LFE Ls Rs
    Sampling rate : 48.0 kHz
    Frame rate : 31.250 FPS (1536 SPF)
    Compression mode : Lossy
    Stream size : 359 MiB (12%)
    Language : English
    Service kind : Complete Main
    Default : Yes
    Forced : No

    Text
    ID : 3
    Format : UTF-8
    Codec ID : S_TEXT/UTF8
    Codec ID/Info : UTF-8 Plain Text
    Duration : 1 h 18 min
    Bit rate : 69 b/s
    Count of elements : 1493
    Stream size : 39.7 KiB (0%)
    Language : English
    Default : Yes
    Forced : No





    本帖子中包含更多资源

    您需要 登录 才可以下载或查看,没有帐号?立即注册

    x
    回复

    使用道具 举报

    您需要登录后才可以回帖 登录 | 立即注册

    本版积分规则

    QQ|广告友链合作联系QQ:1374229927|小黑屋|威酷高清影视论坛

    GMT+8, 2021-9-27 14:18 , Processed in 0.014942 second(s), 11 queries , Gzip On, MemCached On.

    Powered by Discuz! X3.4

    Copyright © 2001-2021, Tencent Cloud.

    快速回复 返回顶部 返回列表