威酷高清论坛

 找回密码
 立即注册
查看: 51|回复: 0
收起左侧

[剧情] 企鹅布鲁姆/企鹅奇缘 Penguin.Bloom.2020.1080p.BluRay.x264-PFa 8.10GB

[复制链接]
  • TA的每日心情
    慵懒
    2021-10-28 22:09
  • 签到天数: 18 天

    [LV.4]偶尔看看III

    卡西迪奥 发表于 2021-10-19 14:31:12 | 显示全部楼层 |阅读模式


    ◎译  名 企鹅布鲁姆/企鹅奇缘(港)/希望鸟(台)
    ◎片  名 Penguin Bloom
    ◎年  代 2020
    ◎产  地 澳大利亚,美国
    ◎类  别 剧情
    ◎语  言 英语
    ◎上映日期 2020-09-12(多伦多电影节) / 2021-01-21(澳大利亚) / 2021-01-27(美国网络)
    ◎豆瓣评分 7.0/10 from 1426 users
    ◎豆瓣链接 https://movie.douban.com/subject/26931089/
    ◎片  长 95分钟
    ◎导  演 葛兰迪·伊文 Glendyn Ivin
    ◎编  剧 哈里·克里普斯 Harry Cripps / 肖恩·格兰特 Shaun Grant / 布拉德利·特雷弗·格雷夫 Bradley Trevor Greive
    ◎主  演 娜奥米·沃茨 Naomi Watts
          安德鲁·林肯 Andrew Lincoln
          瑞切尔·豪斯 Rachel House
          杰基·韦佛 Jacki Weaver
          吉娅·卡迪斯 Gia Carides
          利安娜·瓦尔斯曼 Leeanna Walsman

    ◎标  签 温情 | 剧情 | 澳大利亚 | 人生 | 娜奥米·沃茨 | 2020 | 美国 | 改编

    ◎简  介

      萨曼莎(娜奥米·沃茨 Naomi Watts 饰)和丈夫卡姆龙(安德鲁·林肯 Andrew Lincoln 饰)有一个幸福的家庭,向往自由生活的他们每年都会带着孩子们四处旅行。这一年,夫妻两人决定去泰国度假,哪知道在一场意外种,萨曼莎脊椎受伤,导致的结果是她的胸部以下彻底的瘫痪了,萨曼莎将永远的告别她挚爱的户外运动,下半生只能在轮椅上度过了。
      
      巨大的打击让萨曼莎一改往日的开朗和乐观,陷入了抑郁质中,她甚至想到了死。一天,孩子们从外面带回来一只受伤的小喜鹊交给萨曼莎照料,眼前这个脆弱的小生命,激起了萨曼莎的保护欲,同时也重新唤醒了她的求生欲。
    Video
    ID : 1
    Format : AVC
    Format/Info : Advanced Video Codec
    Format profile : High@L4.1
    Format settings : CABAC / 5 Ref Frames
    Format settings, CABAC : Yes
    Format settings, Reference frames : 5 frames
    Codec ID : V_MPEG4/ISO/AVC
    Duration : 1 h 35 min
    Bit rate : 10.4 Mb/s
    Width : 1 920 pixels
    Height : 804 pixels
    Display aspect ratio : 2.40:1
    Frame rate mode : Constant
    Frame rate : 24.000 FPS
    Color space : YUV
    Chroma subsampling : 4:2:0
    Bit depth : 8 bits
    Scan type : Progressive
    Bits/(Pixel*Frame) : 0.281
    Stream size : 6.92 GiB (86%)
    Writing library : x264 core 164 r3075 66a5bc1
    Encoding settings : cabac=1 / ref=5 / deblock=1:-3:-3 / analyse=0x3:0x133 / me=umh / subme=9 / psy=1 / psy_rd=1.00:0.00 / mixed_ref=1 / me_range=16 / chroma_me=1 / trellis=2 / 8x8dct=1 / cqm=0 / deadzone=21,11 / fast_pskip=1 / chroma_qp_offset=-2 / threads=18 / lookahead_threads=1 / sliced_threads=0 / nr=0 / decimate=1 / interlaced=0 / bluray_compat=0 / constrained_intra=0 / bframes=3 / b_pyramid=2 / b_adapt=2 / b_bias=0 / direct=3 / weightb=1 / open_gop=0 / weightp=2 / keyint=250 / keyint_min=24 / scenecut=40 / intra_refresh=0 / rc_lookahead=60 / rc=crf / mbtree=1 / crf=15.0 / qcomp=0.60 / qpmin=0 / qpmax=69 / qpstep=4 / ip_ratio=1.40 / aq=3:0.70
    Language : English
    Default : Yes
    Forced : No

    Audio
    ID : 2
    Format : DTS XLL
    Format/Info : Digital Theater Systems
    Commercial name : DTS-HD Master Audio
    Codec ID : A_DTS
    Duration : 1 h 35 min
    Bit rate mode : Variable
    Bit rate : 1 741 kb/s
    Channel(s) : 6 channels
    Channel layout : C L R Ls Rs LFE
    Sampling rate : 48.0 kHz
    Frame rate : 93.750 FPS (512 SPF)
    Bit depth : 16 bits
    Compression mode : Lossless
    Stream size : 1.16 GiB (14%)
    Language : English
    Default : Yes
    Forced : No

    Text
    ID : 3
    Format : PGS
    Muxing mode : zlib
    Codec ID : S_HDMV/PGS
    Codec ID/Info : Picture based subtitle format used on BDs/HD-DVDs
    Duration : 1 h 33 min
    Bit rate : 36.1 kb/s
    Count of elements : 2893
    Stream size : 24.3 MiB (0%)
    Language : English
    Default : Yes
    Forced : No





    本帖子中包含更多资源

    您需要 登录 才可以下载或查看,没有帐号?立即注册

    x
    回复

    使用道具 举报

    您需要登录后才可以回帖 登录 | 立即注册

    本版积分规则

    QQ|广告友链合作联系QQ:1374229927|小黑屋|威酷高清影视论坛

    GMT+8, 2021-11-28 00:52 , Processed in 0.018800 second(s), 11 queries , Gzip On, MemCached On.

    Powered by Discuz! X3.4

    Copyright © 2001-2021, Tencent Cloud.

    快速回复 返回顶部 返回列表