威酷高清论坛

 找回密码
 立即注册
查看: 419|回复: 0
收起左侧

[WEB-4K] 生殖细胞/孢子 The.Spore.2021.2160p.WEB-DL.x265.10bit.SDR.DD5.1-NOGRP 7.93GB

[复制链接]
  • TA的每日心情
    慵懒
    2021-10-28 22:09
  • 签到天数: 18 天

    [LV.4]偶尔看看III

    卡西迪奥 发表于 2021-11-6 11:01:37 | 显示全部楼层 |阅读模式


    ◎译  名 生殖细胞/孢子
    ◎片  名 The Spore
    ◎年  代 2020
    ◎产  地 美国
    ◎类  别 恐怖
    ◎语  言 英语
    ◎上映日期 
    ◎豆瓣评分 /10 from 0 users
    ◎豆瓣链接 https://movie.douban.com/subject/35072529/
    ◎主  演 Jackson Ezinga

    ◎简  介

      暂无相关剧情介绍
    Video
    ID : 1
    Format : HEVC
    Format/Info : High Efficiency Video Coding
    Format profile : Main 10@L5@High
    Codec ID : V_MPEGH/ISO/HEVC
    Duration : 1 h 31 min
    Bit rate : 12.0 Mb/s
    Width : 3 832 pixels
    Height : 1 624 pixels
    Display aspect ratio : 2.35:1
    Frame rate mode : Constant
    Frame rate : 23.976 FPS
    Color space : YUV
    Chroma subsampling : 4:2:0
    Bit depth : 10 bits
    Bits/(Pixel*Frame) : 0.081
    Stream size : 7.68 GiB (97%)
    Language : English
    Default : Yes
    Forced : No
    Color range : Limited
    Color primaries : BT.709
    Transfer characteristics : BT.709
    Matrix coefficients : BT.709

    Audio
    ID : 2
    Format : AC-3
    Format/Info : Audio Coding 3
    Commercial name : Dolby Digital
    Codec ID : A_AC3
    Duration : 1 h 31 min
    Bit rate mode : Constant
    Bit rate : 384 kb/s
    Channel(s) : 6 channels
    Channel layout : L R C LFE Ls Rs
    Sampling rate : 48.0 kHz
    Frame rate : 31.250 FPS (1536 SPF)
    Compression mode : Lossy
    Stream size : 251 MiB (3%)
    Title : English
    Language : English
    Service kind : Complete Main
    Default : Yes
    Forced : No

    Text
    ID : 3
    Format : UTF-8
    Codec ID : S_TEXT/UTF8
    Codec ID/Info : UTF-8 Plain Text
    Duration : 1 h 29 min
    Bit rate : 38 b/s
    Count of elements : 701
    Stream size : 25.0 KiB (0%)
    Language : English
    Default : Yes
    Forced : No


    本帖子中包含更多资源

    您需要 登录 才可以下载或查看,没有帐号?立即注册

    x
    回复

    使用道具 举报

    您需要登录后才可以回帖 登录 | 立即注册

    本版积分规则

    QQ|广告友链合作联系QQ:1374229927|小黑屋|威酷高清影视论坛

    GMT+8, 2022-1-23 17:51 , Processed in 0.034551 second(s), 28 queries , Gzip On.

    Powered by Discuz! X3.4

    Copyright © 2001-2021, Tencent Cloud.

    快速回复 返回顶部 返回列表