威酷高清论坛

 找回密码
 立即注册
查看: 14|回复: 0
收起左侧

[喜剧] 宇宙兄弟 Space.Brothers.2012.JAPANESE.1080p.WEBRip.x264-VXT 2.45GB

[复制链接]
  • TA的每日心情
    慵懒
    2021-10-28 22:09
  • 签到天数: 18 天

    [LV.4]偶尔看看III

    卡西迪奥 发表于 2022-5-14 11:58:12 | 显示全部楼层 |阅读模式


    ◎译  名 宇宙兄弟 / LET'S GO TO THE SPACE!BROTHER!
    ◎年  代 2012
    ◎产  地 日本
    ◎类  别 喜剧
    ◎语  言 日语
    ◎上映日期 2012-05-05(日本)
    ◎IMDb链接 https://www.imdb.com/title/tt1872220/
    ◎豆瓣评分 7.2/10 (5322人评价)
    ◎豆瓣链接 https://movie.douban.com/subject/6048738/
    ◎片  长 129分钟
    ◎导  演 森义隆 Yoshitaka Mori (id:1331154)
    ◎编  剧 大森美香 Mika Ohmori (id:1315028)
    ◎演  员 巴兹·奥德林 Buzz Aldrin (id:1005172)
          小栗旬 Shun Oguri (id:1014229)
          冈田将生 Masaki Okada (id:1274453)
          麻生久美子 Kumiko Aso (id:1058969)
          堤真一 Shin'ichi Tsutsumi (id:1151079)
          吹越满 Mitsuru Fukikoshi (id:1008302)
          新井浩文 Hirofumi Arai (id:1015047)
          滨田岳 Gaku Hamada (id:1011107)
          文森特·吉里 Vincent Giry (id:1037667)
          土田大 Hiroshi Tsuchida (id:1213466)
          笠原秀幸 Hideyuki Kasahara (id:1275804)
          森下爱子 Aiko Morishita (id:1001978)
          Russell Totten Russell Totten (id:1357544)
          野口聪一 (id:1446296)
          中岛凯斗 Kaito Nakashima (id:1415741)
          盐见三省 Sansei Shiomi (id:1015203)
          堀内敬子 Keiko Horiuchi (id:1021383)
          清水伸 Shin Shimizu (id:1046799)
          西村雅彦 Masahiko Nishimura (id:1039379)
          益冈彻 T?ru Masuoka (id:1120244)
          井上芳雄 Yoshio Inoue (id:1012408)
          尾崎右宗 Usoh Ozaki (id:1451045)
          川村元气 Genki Kawamura (id:1345696)
          服部隆之 Takayuki Hattori (id:1286214)
          栢野直樹 Naoki Kayano (id:1288265)
          宫岛龙治 Ryuji Miyajima (id:1292254)

    ◎简  介
      19年前,亲密无间的南波兄弟在晴朗的夜空下目睹UFO出现,这一事件直接影响着兄弟俩未来的人生。2025年,弟弟日日人(冈田将生 饰)将作为首位登上月球的日本宇航员,与NASA的伙伴们展开传奇之旅。而他的哥哥六太(小栗旬 饰)则以概念汽车设计师的身份打拼,却因头槌攻击上司而被开除。正是人生颓败之际,六太接到来自JAXA(日本宇宙航空研究开发机构)的首轮测试合格通知书。原来,日日人念念不忘当年和哥哥的约定,兄弟俩要携手登上月球。在弟弟的鼓动下,六太重燃对宇宙的憧憬,与一群有着共同志愿的人们展开集训。另一方面,日日人和伙伴登陆月球,迈开至关重要的一步,然而意外发生……
    本片根据小山宙哉的同名漫画改编,三度漫步太空的日本宇航员野口聪一以及第二个在月球上留下脚印的美国宇航员巴兹·奥尔德林也在片中客串。

    ◎获奖情况 (共2项)
      第16届富川国际奇幻电影节 (2012)
      富川选择奖(长片) 最佳影片
       └──森义隆 (id:1331154)
      富川选择奖(长片) 市民选择奖
       └──森义隆 (id:1331154)

    Video
    ID : 1
    Format : AVC
    Format/Info : Advanced Video Codec
    Format profile : High@L4.1
    Format settings : CABAC / 4 Ref Frames
    Format settings, CABAC : Yes
    Format settings, Reference frames : 4 frames
    Codec ID : avc1
    Codec ID/Info : Advanced Video Coding
    Duration : 2 h 8 min
    Bit rate : 2 500 kb/s
    Width : 1 920 pixels
    Height : 1 038 pixels
    Display aspect ratio : 1.85:1
    Frame rate mode : Constant
    Frame rate : 23.976 (23976/1000/189150) FPS
    Color space : YUV
    Chroma subsampling : 4:2:0
    Bit depth : 8 bits
    Scan type : Progressive
    Bits/(Pixel*Frame) : 0.052
    Stream size : 2.25 GiB (92%)
    Writing library : x264 core 152 r2851M ba24899
    Encoding settings : cabac=1 / ref=4 / deblock=1:-1:-1 / analyse=0x3:0x113 / me=umh / subme=9 / psy=1 / psy_rd=1.00:0.15 / mixed_ref=1 / me_range=24 / chroma_me=1 / trellis=2 / 8x8dct=1 / cqm=0 / deadzone=21,11 / fast_pskip=1 / chroma_qp_offset=-3 / threads=16 / lookahead_threads=4 / sliced_threads=0 / nr=0 / decimate=1 / interlaced=0 / bluray_compat=0 / constrained_intra=0 / bframes=3 / b_pyramid=2 / b_adapt=2 / b_bias=0 / direct=3 / weightb=1 / open_gop=0 / weightp=2 / keyint=250 / keyint_min=25 / scenecut=40 / intra_refresh=0 / rc_lookahead=50 / rc=2pass / mbtree=1 / bitrate=2500 / ratetol=1.0 / qcomp=0.60 / qpmin=0 / qpmax=69 / qpstep=4 / cplxblur=20.0 / qblur=0.5 / vbv_maxrate=31250 / vbv_bufsize=31250 / nal_hrd=none / filler=0 / ip_ratio=1.40 / aq=3:1.00
    Encoded date : UTC 2022-05-13 09:55:03
    Tagged date : UTC 2022-05-13 09:55:03
    Codec configuration box : avcC

    Audio
    ID : 2
    Format : AAC LC
    Format/Info : Advanced Audio Codec Low Complexity
    Codec ID : mp4a-40-2
    Duration : 2 h 8 min
    Duration_LastFrame : -11 ms
    Bit rate mode : Constant
    Bit rate : 224 kb/s
    Channel(s) : 6 channels
    Channel layout : C L R Ls Rs LFE
    Sampling rate : 48.0 kHz
    Frame rate : 46.875 FPS (1024 SPF)
    Compression mode : Lossy
    Stream size : 206 MiB (8%)
    Language : Japanese
    Default : Yes
    Alternate group : 1
    Encoded date : UTC 2022-05-13 09:55:03
    Tagged date : UTC 2022-05-13 09:55:03






    本帖子中包含更多资源

    您需要 登录 才可以下载或查看,没有帐号?立即注册

    x
    回复

    使用道具 举报

    您需要登录后才可以回帖 登录 | 立即注册

    本版积分规则

    QQ|广告友链合作联系QQ:2510481767|小黑屋|威酷高清影视论坛

    GMT+8, 2022-5-26 03:15 , Processed in 0.054075 second(s), 29 queries , Gzip On.

    Powered by Discuz! X3.4

    Copyright © 2001-2021, Tencent Cloud.

    快速回复 返回顶部 返回列表