威酷高清论坛

 找回密码
 立即注册
查看: 19|回复: 0
收起左侧

[WEB-4K] 球鞋灰姑娘 Sneakerella.2022.2160p.DSNP.WEB-DL.DDP5.1.Atmos.DV.MP4.x265-DVSUX 13.41GB

[复制链接]
  • TA的每日心情
    慵懒
    2021-10-28 22:09
  • 签到天数: 18 天

    [LV.4]偶尔看看III

    卡西迪奥 发表于 2022-5-14 12:05:46 | 显示全部楼层 |阅读模式


    ◎译  名 球鞋灰姑娘 / 球鞋奇缘(台)
    ◎片  名 Sneakerella
    ◎年  代 2022
    ◎产  地 美国
    ◎类  别 喜剧 / 歌舞
    ◎语  言 英语
    ◎上映日期 2022-05-13(美国网络)
    ◎IMDb链接 https://www.imdb.com/title/tt10160886/
    ◎豆瓣链接 https://movie.douban.com/subject/35398570/
    ◎导  演 伊丽莎白·艾伦 Elizabeth Allen (id:1277038)
    ◎编  剧 戴维·莱特 David Light (id:1393681)
          约瑟夫·拉索 Joseph Raso (id:1393682)
          George Gore II George Gore II (id:1095568)
          塔马拉·切斯特那 Tamara Chestna (id:1453139)
    ◎演  员 乔森·雅各布 Chosen Jacobs (id:1380978)
          莱克西·安德伍德 Lexi Underwood (id:1434385)
          科尔顿·斯图尔特 Kolton Stewart (id:1430831)
          罗维娜·亚瓦里 Lovina Yavari (id:1409837)
          约翰·萨利 John Salley (id:1146754)
          塔拉·尼科迪莫 Tara Nicodemo (id:1394629)
          洛根·汤普森 Logan Thompson (id:1380981)
          迪文·妮科塔 Devyn Nekoda (id:1356899)
          罗伯特·J·塔维纳 Robert J. Tavenor (id:1199493)
          丹尼尔·基思·莫里森 Daniel Keith Morrison (id:1441662)
          Qasim Khan Qasim Khan (id:1205557)

    ◎简  介
      A modern twist on Cinderella set in New York City's Sneaker culture.
    Video
    ID : 1
    Format : HEVC
    Format/Info : High Efficiency Video Coding
    Format profile : Main 10@L5@High
    HDR format : Dolby Vision, Version 1.0, dvhe.05.06, BL+RPU
    Codec ID : dvhe
    Codec ID/Info : High Efficiency Video Coding with Dolby Vision
    Duration : 1 h 50 min
    Bit rate : 16.6 Mb/s
    Width : 3 840 pixels
    Height : 2 160 pixels
    Display aspect ratio : 16:9
    Frame rate mode : Constant
    Frame rate : 23.976 (24000/1001/189150) FPS
    Color space : YUV
    Chroma subsampling : 4:2:0
    Bit depth : 10 bits
    Bits/(Pixel*Frame) : 0.083
    Stream size : 12.8 GiB (96%)
    Default : Yes
    Alternate group : 1
    Encoded date : UTC 2022-05-13 08:21:25
    Tagged date : UTC 2022-05-13 08:25:53
    Color range : Full
    Codec configuration box : hvcC+dvcC

    Audio
    ID : 2
    Format : E-AC-3 JOC
    Format/Info : Enhanced AC-3 with Joint Object Coding
    Commercial name : Dolby Digital Plus with Dolby Atmos
    Codec ID : ec-3
    Duration : 1 h 50 min
    Bit rate mode : Constant
    Bit rate : 768 kb/s
    Maximum bit rate : 811 kb/s
    Channel(s) : 6 channels
    Channel layout : L R C LFE Ls Rs
    Sampling rate : 48.0 kHz
    Frame rate : 31.250 FPS (1536 SPF)
    Compression mode : Lossy
    Stream size : 609 MiB (4%)
    Title : English
    Language : English
    Service kind : Complete Main
    Default : Yes
    Alternate group : 1
    Tagged date : UTC 2022-05-13 08:25:53
    Complexity index : Not present / 16
    Number of dynamic objects : 15
    Bed channel count : 1 channel
    Bed channel configuration : LFE

    Text #1
    ID : 3
    Format : Timed Text
    Codec ID : tx3g
    Duration : 1 h 50 min
    Bit rate mode : Variable
    Bit rate : 131 b/s
    Stream size : 106 KiB (0%)
    Title : English
    Language : English
    Forced : No
    Encoded date : UTC 2022-05-13 08:25:45
    Tagged date : UTC 2022-05-13 08:25:53

    Text #2
    ID : 4
    Format : Timed Text
    Codec ID : tx3g
    Duration : 1 h 49 min
    Bit rate mode : Variable
    Bit rate : 75 b/s
    Stream size : 59.9 KiB (0%)
    Title : English
    Language : English
    Forced : No
    Encoded date : UTC 2022-05-13 08:25:45
    Tagged date : UTC 2022-05-13 08:25:53

    Text #3
    ID : 5
    Format : Timed Text
    Codec ID : tx3g
    Duration : 1 h 50 min
    Bit rate mode : Variable
    Bit rate : 98 b/s
    Stream size : 79.8 KiB (0%)
    Title : Chinese-Cantonese
    Language : Chinese
    Forced : No
    Encoded date : UTC 2022-05-13 08:25:45
    Tagged date : UTC 2022-05-13 08:25:53

    Text #4
    ID : 6
    Format : Timed Text
    Codec ID : tx3g
    Duration : 1 h 50 min
    Bit rate mode : Variable
    Bit rate : 102 b/s
    Stream size : 82.5 KiB (0%)
    Title : Chinese-Simplified
    Language : Chinese
    Forced : No
    Encoded date : UTC 2022-05-13 08:25:45
    Tagged date : UTC 2022-05-13 08:25:53

    Text #5
    ID : 7
    Format : Timed Text
    Codec ID : tx3g
    Duration : 1 h 50 min
    Bit rate mode : Variable
    Bit rate : 108 b/s
    Stream size : 87.4 KiB (0%)
    Title : Chinese-Traditional
    Language : Chinese
    Forced : No
    Encoded date : UTC 2022-05-13 08:25:46
    Tagged date : UTC 2022-05-13 08:25:53

    Text #6
    ID : 8
    Format : Timed Text
    Codec ID : tx3g
    Duration : 1 h 50 min
    Bit rate mode : Variable
    Bit rate : 105 b/s
    Stream size : 85.6 KiB (0%)
    Title : Czech
    Language : Czech
    Forced : No
    Encoded date : UTC 2022-05-13 08:25:48
    Tagged date : UTC 2022-05-13 08:25:53

    Text #7
    ID : 9
    Format : Timed Text
    Codec ID : tx3g
    Duration : 1 h 50 min
    Bit rate mode : Variable
    Bit rate : 110 b/s
    Stream size : 89.6 KiB (0%)
    Title : Danish
    Language : Danish
    Forced : No
    Encoded date : UTC 2022-05-13 08:25:48
    Tagged date : UTC 2022-05-13 08:25:53

    Text #8
    ID : 10
    Format : Timed Text
    Codec ID : tx3g
    Duration : 1 h 50 min
    Bit rate mode : Variable
    Bit rate : 96 b/s
    Stream size : 78.2 KiB (0%)
    Title : Dutch
    Language : Dutch
    Forced : No
    Encoded date : UTC 2022-05-13 08:25:49
    Tagged date : UTC 2022-05-13 08:25:53

    Text #9
    ID : 11
    Format : Timed Text
    Codec ID : tx3g
    Duration : 1 h 50 min
    Bit rate mode : Variable
    Bit rate : 64 b/s
    Stream size : 51.7 KiB (0%)
    Title : Finnish
    Language : Finnish
    Forced : No
    Encoded date : UTC 2022-05-13 08:25:50
    Tagged date : UTC 2022-05-13 08:25:53

    Text #10
    ID : 12
    Format : Timed Text
    Codec ID : tx3g
    Duration : 1 h 50 min
    Bit rate mode : Variable
    Bit rate : 106 b/s
    Stream size : 86.2 KiB (0%)
    Title : French
    Language : French
    Forced : No
    Encoded date : UTC 2022-05-13 08:25:50
    Tagged date : UTC 2022-05-13 08:25:53

    Text #11
    ID : 13
    Format : Timed Text
    Codec ID : tx3g
    Duration : 1 h 50 min
    Bit rate mode : Variable
    Bit rate : 101 b/s
    Stream size : 81.8 KiB (0%)
    Title : German
    Language : German
    Forced : No
    Encoded date : UTC 2022-05-13 08:25:51
    Tagged date : UTC 2022-05-13 08:25:53

    Text #12
    ID : 14
    Format : Timed Text
    Codec ID : tx3g
    Duration : 1 h 50 min
    Bit rate mode : Variable
    Bit rate : 164 b/s
    Stream size : 133 KiB (0%)
    Title : Greek
    Language : Greek
    Forced : No
    Encoded date : UTC 2022-05-13 08:25:51
    Tagged date : UTC 2022-05-13 08:25:53

    Text #13
    ID : 15
    Format : Timed Text
    Codec ID : tx3g
    Duration : 1 h 50 min
    Bit rate mode : Variable
    Bit rate : 104 b/s
    Stream size : 84.4 KiB (0%)
    Title : Hungarian
    Language : Hungarian
    Forced : No
    Encoded date : UTC 2022-05-13 08:25:51
    Tagged date : UTC 2022-05-13 08:25:53

    Text #14
    ID : 16
    Format : Timed Text
    Codec ID : tx3g
    Duration : 1 h 50 min
    Bit rate mode : Variable
    Bit rate : 105 b/s
    Stream size : 85.4 KiB (0%)
    Title : Italian
    Language : Italian
    Forced : No
    Encoded date : UTC 2022-05-13 08:25:51
    Tagged date : UTC 2022-05-13 08:25:53

    Text #15
    ID : 17
    Format : Timed Text
    Codec ID : tx3g
    Duration : 1 h 50 min
    Bit rate mode : Variable
    Bit rate : 75 b/s
    Stream size : 60.9 KiB (0%)
    Title : Japanese
    Language : Japanese
    Forced : No
    Encoded date : UTC 2022-05-13 08:25:51
    Tagged date : UTC 2022-05-13 08:25:53

    Text #16
    ID : 18
    Format : Timed Text
    Codec ID : tx3g
    Duration : 1 h 50 min
    Bit rate mode : Variable
    Bit rate : 97 b/s
    Stream size : 78.6 KiB (0%)
    Title : Korean
    Language : Korean
    Forced : No
    Encoded date : UTC 2022-05-13 08:25:51
    Tagged date : UTC 2022-05-13 08:25:53

    Text #17
    ID : 19
    Format : Timed Text
    Codec ID : tx3g
    Duration : 1 h 50 min
    Bit rate mode : Variable
    Bit rate : 102 b/s
    Stream size : 82.8 KiB (0%)
    Title : Norwegian
    Language : Norwegian
    Forced : No
    Encoded date : UTC 2022-05-13 08:25:51
    Tagged date : UTC 2022-05-13 08:25:53

    Text #18
    ID : 20
    Format : Timed Text
    Codec ID : tx3g
    Duration : 1 h 50 min
    Bit rate mode : Variable
    Bit rate : 104 b/s
    Stream size : 84.0 KiB (0%)
    Title : Polish
    Language : Polish
    Forced : No
    Encoded date : UTC 2022-05-13 08:25:51
    Tagged date : UTC 2022-05-13 08:25:53

    Text #19
    ID : 21
    Format : Timed Text
    Codec ID : tx3g
    Duration : 1 h 50 min
    Bit rate mode : Variable
    Bit rate : 104 b/s
    Stream size : 84.2 KiB (0%)
    Title : Portuguese
    Language : Portuguese
    Forced : No
    Encoded date : UTC 2022-05-13 08:25:52
    Tagged date : UTC 2022-05-13 08:25:53

    Text #20
    ID : 22
    Format : Timed Text
    Codec ID : tx3g
    Duration : 1 h 50 min
    Bit rate mode : Variable
    Bit rate : 100 b/s
    Stream size : 81.3 KiB (0%)
    Title : Portuguese-BR
    Language : Portuguese
    Forced : No
    Encoded date : UTC 2022-05-13 08:25:52
    Tagged date : UTC 2022-05-13 08:25:53

    Text #21
    ID : 23
    Format : Timed Text
    Codec ID : tx3g
    Duration : 1 h 50 min
    Bit rate mode : Variable
    Bit rate : 97 b/s
    Stream size : 78.8 KiB (0%)
    Title : Romanian
    Language : Romanian
    Forced : No
    Encoded date : UTC 2022-05-13 08:25:52
    Tagged date : UTC 2022-05-13 08:25:53

    Text #22
    ID : 24
    Format : Timed Text
    Codec ID : tx3g
    Duration : 1 h 50 min
    Bit rate mode : Variable
    Bit rate : 107 b/s
    Stream size : 87.1 KiB (0%)
    Title : Slovak
    Language : Slovak
    Forced : No
    Encoded date : UTC 2022-05-13 08:25:52
    Tagged date : UTC 2022-05-13 08:25:53

    Text #23
    ID : 25
    Format : Timed Text
    Codec ID : tx3g
    Duration : 1 h 50 min
    Bit rate mode : Variable
    Bit rate : 100 b/s
    Stream size : 81.3 KiB (0%)
    Title : Spanish
    Language : Spanish
    Forced : No
    Encoded date : UTC 2022-05-13 08:25:52
    Tagged date : UTC 2022-05-13 08:25:53

    Text #24
    ID : 26
    Format : Timed Text
    Codec ID : tx3g
    Duration : 1 h 50 min
    Bit rate mode : Variable
    Bit rate : 100 b/s
    Stream size : 81.0 KiB (0%)
    Title : Spanish-EU
    Language : Spanish
    Forced : No
    Encoded date : UTC 2022-05-13 08:25:52
    Tagged date : UTC 2022-05-13 08:25:53

    Text #25
    ID : 27
    Format : Timed Text
    Codec ID : tx3g
    Duration : 1 h 50 min
    Bit rate mode : Variable
    Bit rate : 105 b/s
    Stream size : 85.1 KiB (0%)
    Title : Swedish
    Language : Swedish
    Forced : No
    Encoded date : UTC 2022-05-13 08:25:52
    Tagged date : UTC 2022-05-13 08:25:53

    Text #26
    ID : 28
    Format : Timed Text
    Codec ID : tx3g
    Duration : 1 h 50 min
    Bit rate mode : Variable
    Bit rate : 111 b/s
    Stream size : 90.5 KiB (0%)
    Title : Turkish
    Language : Turkish
    Forced : No
    Encoded date : UTC 2022-05-13 08:25:52
    Tagged date : UTC 2022-05-13 08:25:53






    本帖子中包含更多资源

    您需要 登录 才可以下载或查看,没有帐号?立即注册

    x
    回复

    使用道具 举报

    您需要登录后才可以回帖 登录 | 立即注册

    本版积分规则

    QQ|广告友链合作联系QQ:2510481767|小黑屋|威酷高清影视论坛

    GMT+8, 2022-5-26 03:20 , Processed in 0.031637 second(s), 29 queries , Gzip On.

    Powered by Discuz! X3.4

    Copyright © 2001-2021, Tencent Cloud.

    快速回复 返回顶部 返回列表